&title=おどロボ
&artist=海茶
&first=0
&des=南丘
&lv_5=12+
&inote_5=(145){1},
{4},,,
{8}4,3,2pp5b[4:1]/5,,6,7,8^5pp7[4:1],,4,3,
{8}2,4,26,4,6p1p4[4:1]*p1p4[4:1]/2,,4,3,
{8}2,15,6,7,8/4h[8:3],,B3/A3/E3f,B6/A6/E7f,,
{8}2x/5x,7x/4x,1x/6x,3bx-1[8:1]/8bx-6[8:1],,,,
{8}5/8q3[4:1],,6,,6h[4:1],4,2h[4:1],8,6-1[8:1],6,2-5[8:1],2,6-1[8:1],,6hx[8:1],,
{8}5/2q5[4:1],,7,,8,47,3,25,1-6[8:1],1,5-2[8:1],5,8-3[8:1]*-5[8:1],,8x,,
{8}2/4q7[4:1],,2,,3h[4:1],8,6h[4:1],1,3-8[8:1],3,7-4[8:1],7,3>6[4:1],,3hx[8:1],,
{8}2-4[8:1],,1-5b[8:1],,8-6[8:1]*-6[8:1],,4>5[8:3],3,
{16}2h[8:3]/4,,,,,,,,3,5,4,6,5,7,4,6,
{4}3-7[8:1],1h[8:1],3-7[8:1],1b-6b[8:1],
{8}1-5[8:1]*-5[8:1]/8h[2:1],,1-4[8:1],,1b,,6,5,
{2}4-8b[8:1]/7-5b[8:1],1-3[8:1]/4-8[8:1],
{4}4-8[8:1]/7,7-5[8:1]/4,1-3[8:1]/7,1b/7bh[4:1],
{4}4-1-6-3p7-4[4:3],C,8x,C,6-8[8:1],5-1[8:1]*-1[8:1],4-2b[8:1],4b/8b,
{8}7,B2,1,B6,3,B7,5,B1,
{384}3bx-6b[8:1]/7bx$,7?-2[384:47],,,,,,,,,,,
{32},,,,,,,,,,,,,,,
{16}4,8,3,7,C/B6/B2,,,,
{4}3pp6[2:1],6,2,7-1[8:1],2-6[8:1]*-6[8:1],5-3b[8:1],5b/1b,26,
{8}6x/3x,4,3x/7x,5,2x/6x,4,2x/7x,5,
{16}2x/7x,,4,5,2,,45,,1x/7x,,45,,2b-6[8:1]/7b-3[8:1],,,,
{4}2/7,6-4[8:1]/3-1[8:1],36,{8}26,4,37,5,27,4,27,36,4b-2[8:1]/5b-1[8:1],,
{8}45,,5-7[8:1]/4-8[8:1],,45,,4v7[8:1]/5v2[8:1],,
{16}45,,,,18,,18,,E2,E8,B2,B7,C,,,,
{4}6qq3[2:1],3,7,2-8b[8:1],7-3[8:1]*-3[8:1],4-6[8:1],4b/8b,73,
{8}3x/6x,5,6x/2x,4,7x/3x,5,7x/2x,4,
{16}7x/2x,,5,4,7,,54,,8x/2x,,54,,7b-3[8:1]/2b-6[8:1],,,,
{4}2/7,6-4[8:1]/3-1[8:1],36,{8}26,4,37,5,27,4,27,36,4b^2[8:1]/5bp1[8:1],,
{8}45,,5^7[8:1]/4q8[8:1],,45,,4v7[8:1]/5v2[8:1],,
{16}45,,,,18,,18,,E8,E2,B7,B2,C,,,,
{4}3-6b[8:1]/5h[8:1],37,7-2b[8:1]/4h[8:1],73,
{4}3p7[4:1]*p7[4:1],7p3[4:1]*p3[4:1],3-1[8:1]*-1[8:1],6-8[8:1],
{8}3-1[8:1],4,6-8[8:1],5,3-1[8:1],4,6,5,
{16}64,,3,5,2,,15,,2,,73,,6-4[8:1]*-4[8:1],,3,,
{4}3-1[8:1]*-1[8:1]/6,3/6-4[8:1]*-4[8:1],3-1[8:1]*-1[8:1]/6,3/7^6-4[8:1],
{8}8v3[8:1],8,7^6-4[8:1],7,8v3[8:1],8,6,,
{4}1-5b[8:1]/2-4b[8:1],12,8-4b[8:1]/7-5b[8:1],87,
{16}35,,6,4,7,,84,,7,,26,,3,,47,,
{4}6v3b[8:1]/5h[8:1],62,2^7b[8:1]/4h[8:1],26,
{4}6q2[4:1]*q2[4:1],2q6[4:1]*q6[4:1],6^8[8:1]*^8[8:1],3^1[8:1],
{8}6^8[8:1],5,3^1[8:1],4,6^8[8:1],5,3,4,
{16}35,,6,4,7,,84,,7,,26,,3v5[8:1]*v5[8:1],,6,,
{4}6v4[8:1]*v4[8:1]/3,6/3-1[8:1]*-1[8:1],6-8[8:1]*-8[8:1]/3,6/2-5[8:1],
{8}6-1[8:1],6,3-8[8:1],3,7-4[8:1],7,1-5b[8:1],,
{8}8-4[8:1]/1,,1^4[8:1]*^4[8:1]/8,,8^5b[8:1]/1,,1/8,4,
{8}3/6,2b/5b,7b/4b,1b/6b,3b-1[8:1]/8b-6[8:1],,,,
{1}8<1[2:15],C,C,C,
{4}7,7,7,7,6,6,6,6,5,5,5,5,4,4,4,4,
{16}3,,4,,5,,6,,3,5,4,6,5,,6,,3,,4,,5,,6,,3,5,4,6,5,,6,,
{16}6,,5,,4,,3,,6,4,5,3,4,,3,,6,,5,,4,,3,,6,4,5,3,4,,3,,
{8}2p6qq4[4:1]*p6qq4[4:1],,7hx[8:1],,8-3pp5[4:1]*-3pp5[4:1],,2hx[8:1],,
{4}1-3[8:1]*-3[8:1],1/7-5[8:1]*-5[8:1],7/4v2^7[4:1]*v2^7[4:1],C,
{8}6,57,5,46,3,42,4>5b[8:3],53,Cf,,,,
{32}3x,2x,1x,8x,7x,6x,5x,4x,B7/C/B3,,,,,,,,
{8}3pp6[2:1],3,6,6,2,2,7-1[8:1],7,2-6[8:1]*-6[8:1],2,5-3b[8:1],5,5b/1b,,26,,
{8}2/7h[8:1],8,7/3h[8:1],1,6h[8:1]/2,8,6/3h[8:1],1,
{16}6/3,,8,1,6,,81,,5/3,,81,,7b-3[8:1]/2b-6[8:1],,,,
{4}2/7,6v4[8:1]/3^8[8:1],36,
{8}2h[8:1]/6,4,3/7h[8:1],5,2h[8:1]/7,4,2/7,36,4bx-2b[8:1]/5bx-1[8:1],,
{4}45,
{384}5x-7[8:1]/4x$,4?-8[384:47]*-8[384:47],,,,,,,,,,,
{32},,,,,,,
{4}45,4v7[8:1]/5v2[8:1],
{16}45,,,,1/8,,2/7,,B7,B2,B6,B3,B5/B4,,,,
{8}6qq3[2:1],6,3,3,7,7,2-8[8:1],2,7-3[8:1]*-3[8:1],7,4-6b[8:1],4,4b/8b,,73,,
{8}7/2h[8:1],1,2/6h[8:1],8,3h[8:1]/7,1,3/6h[8:1],8,
{16}3/6,,1,8,3b,,1b/8b,,4b/6b,,18,,2b-6[8:1]/7b-3[8:1],,,,
{4}2/7,6v4[8:1]/3^8[8:1],36,
{8}2h[8:1]/6,4,3/7h[8:1],5,2h[8:1]/7,4,2/7,36,4bx^2b[8:1]/5bxp1[8:1],,
{4}45,
{384}5x^7[8:1]/4x$,4?q8[384:47]*q8[384:47],,,,,,,,,,,
{32},,,,,,,
{4}45,4v7[8:1]/5v2[8:1],
{16}45,,,,8/1,,7/2,,B2,B7,B3,B6,B4/B5,,,,
{4}1b>1[4:1]/Cf,,
{4}B1/B2/B3/B4/B5/B6/Cf,2/6-8b[8:1],6/5-1[8:1]*-1[8:1],5/4-2[8:1],48,
{16}7,3,6,2,
{8}5,2h[8:1]/7,5,2h[8:1]/7,4,2h[8:1]/7,4,2/7,
{8}5,2h[8:1]/6,5,2h[8:1]/6,4,7h[8:1]/3,4,7h[8:1]/3,
{8}5,17,45,17,45,28,45,28,
{8}5h[4:1]/7,6,6h[4:1],7,5,{16}8x/5x,4x/7x,6x/3x,,5bx/2bx,,
{8}2,13,1,28,7,86,8,71,
{8}5,2/6h[8:1],5,2/6h[8:1],4,7/3h[8:1],4,7/3,
{8}45,17,45,17,45,28,45,2/8h[8:1],3,2bx/E6f,1bx/E5f,8bx/E4f,15,2,3p7[8:1]/7p3[8:1],6,
{384}3bq6^4b[2:3]/7b$,7?q2^8[384:575],,,,,,,,,,
{32},,,,,,,
{1},,E
