&title=呼び込み君の曲がいつのまにか爽やかなプログレッシブハウスになるやつ
&artist=MUGIPONG
&first=1.28
&des_1=オフセット
&des_5=GANTZのおふざけ君
&lv_1=音
&lv_5=12
&wholebpm=127.04
&demo_seek=71.2
&demo_len=29.5
&inote_1=(127.04){8}
1,8,1,8,1,8,1,8,1,8,1,8,1,8,1,8,1,8,1,8,1,8,1,8,1,8,1,8,1,8,1,8,
1,8,1,8,1,8,1,8,1,8,1,8,1,8,1,8,1,8,1,8,1,8,1,8,1,8,1,8,1,8,1,8,
&inote_5=(127.04)
{8}
24,3h[4:1],,4,5,6,74,,
75,6h[4:1],,5,4,3,25,,
2,1,8,7,6-2[8:1]/5-1[8:1],,,,
1-5[8:1]/2-6[8:1],,12,,6<8[8:1]/5>3[8:1],,65,,
13,2,13,2,1-5[8:1]/2p5[8:1],,12,,
86,7,86,7,8-4[8:1]/7q4[8:1],,87,,
4,5,6,74,8-5[8:1]/3-6[8:1],,83,,
74,,25,,36,,18,,
75,6h[4:1],,5,4,3,25,,
24,3h[4:1],,4,5,6,74,,
7,8,1,2,3-7[8:1]/4-8[8:1],,,,
8-4[8:1]/7-3[8:1],,87,,4<6[8:1]/3>1[8:1],,34,,
86,7,86,7,8-4[8:1]/7q4[8:1],,87,,
13,2,13,2,1-5[8:1]/2p5[8:1],,12,,
5,4,3,25,1-4[8:1]/6-3[8:1],,16,,
25,,74,,36,,1b/8b,,
{8}
,,,,,,,,
{16}
7/8b>3[8:1],,,7,8,,6,,5-1[8:1],,4,,5,,,,
2/1b<6[8:1],,,2,1,,3,,4-8[8:1],,5,,4,,,,
86,,,7,
8V64[8:1],,1,,
8,,{24}1,2,3,4,,,{16}45,,
45,,{24}5,6,7,8,,,
{16}18,,
18,,{24}1,2,3,4,,,{16}45,,
4b/5b,,,6,
3>8[8:1],,5,,
3,,{24}4,5,6,7,,,{16}17,,
18,,,2,
7<4[8:1],,1,,
7,,{24}8,1,2,3,,,{16}35,,
45,,,3,6pp1[4:1],,4,,6,,3,,2,,,,
2-4[8:1],,,,2/7-5[8:1],,,,7/4v2[8:1]*-8[8:1],,,,4b,,,,
2/1b<6[8:1],,,2,1,,3,,4-8[8:1],,5,,4,,,,
7/8b>3[8:1],,,7,8,,6,,5-1[8:1],,4,,5,,,,
13,,,2,
1V35[8:1],,8,,
1,,{24}8,7,6,5,,,{16}45,,
45,,{24}4,3,2,1,,,
{16}18,,
18,,{24}8,7,6,5,,,{16}45,,
4b/5b,,,3,
6<1[8:1],,4,,
6,,{24}5,4,3,2,,,{16}28,,
18,,,7,
2>5[8:1],,8,,
2,,{24}1,8,7,6,,,{16}64,,
45,,,6,3qq8[4:1],,5,,3,,6,,7,,,,
7-5[8:1],,,,7/2-4[8:1],,,,2/5v7[8:1]*-1[8:1],,,,5,,,,
{8}
8b/6b,,,,,,,1h[8:1],
2h[8:1],3h[4:1],,4,,5,6,7pp5[8:3]/4qq6[8:3],
,,,,,,4,3h[4:3],
,,7,8h[4:1],,,,1p4[4:1]/2p4[4:1],
,12,,,,3h[8:1],5h[8:1],2h[8:1],
6,{16},78,
,,16,,
{8},,
25,5qq8[8:3],
,,,,
,,{16}5,4,3,2,{8}
1b/8b,,,18,82,17,83,16,
{16}
47,,,4,4-7[8:1],,6,,7-2[8:1],,6,,5,,,,
52,,,5,5-2[8:1],,3,,2-7[8:1],,3,,4,,,,
7pp5[4:1],,,4,
7,,3,,
2,,{24}15,26,37,48,,,{16}1h[8:1]/5h[8:1],,
,,{24}84,73,62,51,,,
{16}8h[8:1]/4h[8:1],,
,,{24}15,26,37,48,,,{16}15,,
8V26[4:1],,,3,
84,,3,,
2,,{24}3,4,3,4,,,{16}25,,
1V73[4:1],,,6,
15,,6,,
7,,{24}6,5,6,5,,,{16}47,,
12,,,83,74,,6/5qq2[4:1],,6,,57,,8,,,,
1b-5[8:1],,,,1b-4[8:1]*-6[8:1],,,,1bw5[8:1],,,,1b,,,,
4>2[8:1]/7,,,4,4-7[8:1],,6,,7-2[8:1],,6,,5,,,,
5<7[8:1]/2,,,5,5-2[8:1],,3,,2-7[8:1],,3,,4,,,,
3pp1[4:1],,,8,
3,,6,,
7,,{24}18,27,36,45,,,{16}3h[8:1]/6h[8:1],,
,,{24}45,36,27,18,,,
{16}2h[8:1]/7h[8:1],,
,,{24}18,27,36,45,,,{16}36,,
3<8[4:1]/1,,,2,
3,,2,,
3,,{24}2,1,2,1,,,{16}83,,
6>1[4:1]/8,,,7,
6,,7,,
6,,{24}7,8,7,8,,,{16}16,,
78,,,16,25,,3/4pp7[4:1],,3,,42,,1,,,,
8b-3[8:1]*-5[8:1],,,,8b-4[8:1],,,,8bw4[8:1],,,,8b,,,,
{8}
4h[8:1],5h[8:5],,1,2,3,4,,
5h[8:1],4h[8:5],,8,7,6,5,,
8bV63[4:3]/1b-4[4:3],,,,,,,,
,,,,,,,,E
