&title=サ終あざした
&artist=あばらや
&first=0
&des=PoP
&lv_5=13+
&inote_5=(152)
{4},,,,,,,,
{4}6h[2:1]/5,5,4,4,
3>1[8:1],5<7[8:1],4h[4:1],8,
{4}4h[1:1]/6,6,5,5,7<5[8:1],1>3[8:1],4h[4:1],3>6[4:3],
{4}3,4,5,5-3[8:1],5-7[8:1],5,2,
1-4[8:1],4,5-8[8:1],3h[4:3],,
{1}1-4<5-8[2:1],
{4}4<6[8:1],4p2[8:3],,,5<7[8:1],5p3[8:3],,,
6<8[8:1],6p4[8:3],,,7>1[8:1],7p5[8:3],,C,
{4}4>2[8:1],4q6[8:3],4x,,3>1[8:1],3q5[8:3],3x,,
2<8[8:1],2q4[8:3],2x,,
{8}8h[8:5],4,3,2,1-5[8:1]*-4[8:1],1x,1x,,
{16}6-8[8:1],,,,6/5,,,4,1x<6[8:1],3,,,3,,,,
{16}5-7[8:1],,,,5/4,,,3,8x<5[8:1],2,,,2,,,,
{16}3-1[8:1],,,,3/4,,,5,8x>3[8:1],6,,,6,,,,
{16}4-2[8:1],,,,4/5,,,6,1x>4[8:1],7,,,7,,,,
{4}1x<6[8:1]/5x>2[8:1],,5xh[4:1]/1x,,
{8}1>4[8:1],8,7/1,7,{16}5,6,,6,{8}4,3,
{4}3w7[8:1],,1v6[8:1]*v4[8:1],,
{4}7h[2:1]/3,,{12}1,5,3,7,,,
{12}E8,E4,E6,E2,E5,Ch[12:28],,,,,,,
{1}8x<7-5>4b[4:4],,
{12}6xh[12:1],7xh[12:1],8xh[12:1],1xh[12:1],2xh[12:1],3xh[12:1],
4xh[12:1],5xh[12:1],6xh[12:1],
{16}7x-4[8:1],,,,
{16}7b/3b<1[16:4],,,2,,,3,,4b<2[16:4],,,3,,,4,,5b<3[16:4],,,4,,,5,,
{4}5w1[8:1],,
{8}7/3,4/6,3/5,2/4,{16}1,4,2,5,3,6,4,7,
{4}5x-1b[8:1],,{12}2/8,3/7,4/6,5-8[8:1],,,
{8}1b<6[8:1],,1/2,,3-5[8:1]/5-2[8:1],2,5,,
3-5[8:1]/6-2[8:1],2,6,,3-5[8:1]/7-2[8:1],2-8[8:1],7,,
4x<7[8:1],,4x/3xh[4:1],,1-5[8:1],8,7<4[8:1],6,
1-3[8:1],1-7[8:1],1-5[8:1],,,,
4-1[8:1]/8-5[8:1],,4<7[8:1]/8,,4/3,,8-5[8:1]/4-8[8:1],1,4,,
7-4[8:1]/4-8[8:1],8-3[8:1],4,,5<1[4:1],5,3,4,
5h[4:1],,1-6[8:1],1,5-2[8:1],5,7h[4:1],,2-5[8:1],5V38[4:1],2,7,7-4b[8:1],,,,
{8}5x/8x>3[8:1],,8/7,,6-4[8:1]/4-7[8:1],7,4,,
6-4[8:1]/3-7[8:1],7,3,,6-4[8:1]/2-7[8:1],7-1[8:1],2,,
5x>2[8:1],,5x/6xh[4:1],,8-4[8:1],1,2>5[8:1],3,
8<6[8:1],8>2[8:1],8-4[8:1],,,,
5-8[8:1]/1-4[8:1],,5>2[8:1]/1,,5/6,,1-4[8:1]/5-1[8:1],8,5,,
2-5[8:1]/5-1[8:1],1,5,,7x>2[8:1],2x<7[8:1],7x,3x,
3xh[4:1],,6,6>4[8:1],4,3,2z6b[8:4],,,,,,,,
{8}8<5[8:1],,{24}4xbq8[8:1],3,2,{8}1,1x-5[8:1],2,3/1x,,6h[4:1]/2,,
{24}7x,8,1,2,3,4,8x,1,2,3,4,5,
{8}6xh[4:1]/2,,1>4[8:1],1,
{24}5xbp1[8:1],6,7,{8}8,8x-4[8:1],7,6/8x,,3h[4:1]/7,,
{24}2x,1,8,7,6,5,1x,8,7,6,5,4,
{8}7/3xh[4:1],,8b<5[8:1],,
{24}4xb-8[8:1],3,2,{8}1,1x-5[8:1],2,3/1x,,6h[4:1]/2,,
{24}7x,8,1,2,3,4,8x,1,2,3,4,5,
{8}6xh[4:1]/2,,1>4[8:1],1,
{24}5xb-1[8:1],6,7,{8}8,8x-4[8:1],7,6/8x,,3x/5x,2x/6x,
{32}1,8,7,6,5,4,3,2,1,8,7,6,5,4,3,2,
{4}1xw5[8:1],1b,
{16}7/3,,6,,5/2,,3,,4-2[8:1],6,,6,4,,7,,
1/6,,2,,7/3,,6,,1-5[8:1],6,,6,1,,7,,
{16}2/6,,3,,4/7,,6,,5-7[8:1],3,,3,5,,2,,
8/3,,7,,2/6,,3,,8-4[8:1],3,,3,8,,2,,
1/5>2[8:1],,6,,7/5,,8,,2-5-3[16:3],7,,7,2,,1,,
8<5[8:1],,1,,2/8,,3,,5-8-6[16:3],2,,2,5,,4,,
{8}3>8[8:1],3,4,5,6>3[8:1],6,7,8,1-6[8:1]*-4[8:1],1,1,,
{12}5,1,7,3,,,
{1}Ch[4:11],8x<7-5>4b[4:4],,
{12}3xh[12:1],2xh[12:1],1xh[12:1],8xh[12:1],7xh[12:1],6xh[12:1],
5xh[12:1],4xh[12:1],3xh[12:1],
{16}2x-5[8:1],,,,
{16}2b/6b>8[16:4],,,7,,,6,,5b>7[16:4],,,6,,,5,,4b>6[16:4],,,5,,,4,,
{4}4w8[8:1],,
{8}2/6,5/3,6/4,7/5,{16}8,5,7,4,6,3,5,2,
E5,E4,E3,E2,E1,E8,E7,E6,
E1/B8,E7/B6,E3/B2,E5/B4,C,,,,
{1}1x-4<5-8[1:1],8-3<4-7[1:1],7-2>3-6[1:1],6-1>2-5[4:3],
{4}7,7,7/B4,7/B3,2,2,2/B5,2/B6,6,6,6/B3,6/B2,3,3,3/B6,3/B7,
{16}5-7[8:1]/4,,,,3,,,3-5[8:1],,,7,,7,,,8-4[8:1],,,3,,3,,5,2h[16:5],,,,,
7,,6,5h[16:5],,,,,7,,4,5h[16:5],,,,,2,,4,3h[16:5],,,5,,6,,4,5h[16:5],,,,,2,,3,,
{16}4-2[8:1]/5,,,,6,,,6-4[8:1],,,2,,2,,,1-5[8:1],,,6,,6,,4,7h[16:5],,,,,
2,,3,4h[16:5],,,,,2,,5,4h[16:5],,,
{8}7<7[8:5],7,7,,,,,,4bw8[8:7],,,,,,,,,,,
{2}5<6[4:1],2>3[4:1],8<7[4:1],4>3[4:1],6<7[4:1],1>2[4:1],7<6[4:1],3>2[4:1],
{8}5,,2/6,,
8>2[8:1],2>4[8:1],4<8[4:1],,
8b>2b[8:1],2>4[8:1],4<8[4:1],,
8b>2b[8:1],2b>4b[8:1],4<8[4:1],,
8b>2b[8:1],2b>4b[8:1],4b<8b[4:1],,
8b,2b,4bv2<7[2:1],,,,,,,,4x<5-8b[8:1],,
{8}1bv7[8:1],,2,2,3-5[8:1]/5-2[8:1],2,5,,
3-5[8:1]/6-2[8:1],2,6,,3-5[8:1]/7-2[8:1],2-8[8:1],7,,
4x-6<7[8:1],,4x/3xh[4:1],,1-5[8:1],8,7<4[8:1],6,
1-6[8:1],2-5[8:1],1>7[8:3],2,1,,
1<8-5[8:1],,4-7[8:1]/1,,4/2,3,8-5[8:1]/4-8[8:1],1,4,,
7-4[8:1]/4-8[8:1],8>3[8:1],4,,5<7>1[4:1],5,3,4,
5hb[4:1],,1-6[8:1],1,5-2[8:1],5,7h[4:1],,2-5[8:1],7-1[8:1],2,7,
{16}4,4,1,1,8,8,6,6,
{8}5b-2>3[8:1],,6,6,7-1[8:1]/1-6[8:1],6,1,,
7-1[8:1]/2-6[8:1],6,2,,7-1[8:1]/3-6[8:1],6-4[8:1],3,,
8x>1-3[8:1],,8x/7xh[4:1],,5<8[8:1],4,3/5,2,
1-7b[8:1],2-6[8:1],1-5b[8:1],2-4[8:1],1-6b[8:1],2-5[8:1],1,2,
8>1-4[8:1],,8/6,7,8-5>4[8:1]/4-1<8[8:1],1,4,,
7-4[8:1]/4p8[8:1],8>3[8:1],4,,6x<1[8:1],1x<6[8:1],6x,3b,3hb[4:1],,
5<7[8:1],5>2[8:1],5-8[8:1],5p1[8:1],,,
7x<5[8:1],2x>5[8:1],7x,2x,1x-5b[8:1],,,,
6hb[4:1]/2b,,4>2[8:1],4<7[8:1],4-1[8:1],4q8[8:1],,,
2x>4[8:1],7x<4[8:1],2x,7x,8xw4b[8:1],,,,
{8}3hb[32:1]/7hb[32:1],,2/8,
{24}1,1,1,1-5b[8:1],1,1,1,1,1,1/Cf,,,,,,
{8}7-4b[8:1]/1,6,1/7,{24}3,2,1,
{8}8/7-4b[8:1],6,1/7,{24}3,2,1,
{24}6x,7x,8x,4x,3x,2x,5x,6x,7x,3x,2x,1x,
{8}5<8[8:1],4,5/3,2,
{8}2-5b[8:1]/8,3,8/2,{24}6,7,8,
{8}1/2-5b[8:1],3,8/2,{24}6,7,8,
{24}3x,2x,1x,5x,6x,7x,4x,3x,2x,6x,7x,8x,
{8}4>1[8:1],5,4/6,7,
{8}7-4b[8:1]/1,{16}6,5,{8}7,{24}3,2,1,
{8}8/7-4b[8:1],{16}6,5,{8}7,{24}3,2,1,
{24}6x,7x,8x,4x,3x,2x,5x,6x,7x,3x,2x,1x,
{8}5<8[8:1],4,5/3,2,
{8}2-5b[8:1]/8,{16}3,4,{8}2,{24}6,7,8,
{8}1/2-5b[8:1],{16}3,4,{8}2,8,
{24}8bh[384:1]/2x,3x,4x,8bh[384:1]/5x,6x,7x,
{24}6bh[384:1]/8x,1x,2x,6bh[384:1]/3x,4x,5x,
{24}4bh[384:1]/6x,7x,8x,4bh[384:1]/1x,2x,3x,
{32}4xbh[64:1],5xbh[64:1],6xbh[64:1],7xbh[64:1],
8xbh[64:1],1xbh[64:1],2xbh[64:1],3xbh[64:1],
{1}Ch[1:1],,
