&title=Dancing On The Moon
&artist=roop
&first=-0.84
&des=The_Procyon
&des_5=The_Procyon
&lv_5=13
&inote_5=(130){4},,,,{1}2-5[4:1]`5<8q3[1:1],
4p1[2:1],
{4}8-2[8:1],3-7[8:1],{8}5-1[8:1],5<7[8:1],,,2-4[8:1],
2-6[8:1],{4}2-8[8:1],,7-4[8:1]`8-5[8:1],
8>3[8:1],C,5<8[8:1],A4`D4`B4,
2-6[8:1],5-8[8:1],2-5[8:1]`5-2[8:1],2<8[8:1],
7<5[8:1],3>1[8:1],8<5[8:1],8w4[8:1],
8pp4[2:1],,,C,
{8}E4`E5,E3`E6,{16}E2`E7,E8,E1,Ch[16:9],,,,,,,,,{1}1-7-2-6-3-5<4[2:3],
{8},,,,,,8>2[8:1],7p6>2[8:7],
,,,,,,,,{4}1<6[8:1],
2p5[8:1],3v4[8:1],3>8[8:1],
{2}3pp8<5[4:3],4x-1[8:1],
{4}2q6[8:1],2>5[4:1]`8<5q1[2:1],{8},,,,2>4[8:1],
4<6[8:1],6<8[8:1],8>2[8:1],{2}2q5[8:3],
{8}7<5[8:1],7>1[8:1],,,3<5[8:1],3>1[8:1],,,7-1[8:1],
1-3[8:1],3-5[8:1],5-7[8:1],{2}7>3[4:1],
{4}5pp8[8:3],5>3[8:1],{2}5w1[8:1],
{8}7<5[8:1],5>3[8:1],3>1[8:1],1<7[8:1],{2}7qq4[8:3],
{4}2-4[8:1],2-6[8:1]`6-8[8:1],6>5-1[8:1]`2-4[8:1],6<3>6[1:2],
{8}E3f`E7f,,,,,,,B6,
B2,,,,,,,5-1<7-4[4:3],
,,,,,,,6-4[8:1],
,7-3[8:1],,8-2[8:1],,5-1[8:1],,2>4[8:1],
4p8q5[2:1],,,,,,,8-6[8:1],
6-8v1-3<5[2:1],,,,,,,2-4[8:1],
{4}4>1pp5[8:5],{8},,,,1w5[8:5],8w4[2:1],
,,,,,,,,{4}2v5[8:1]`5v8[8:1],
2>5[8:1],6-3[8:1],6-1[8:1]`2-5[8:1],
6-3[8:1]`2-7[8:1],2pp2[4:1],2<7[8:1],5-1[8:1],
5>2[8:1]`7x-3[8:1],5<8[8:1],{8},,,8p4[8:1]`7-5[8:1],
,7q3[8:1]`8-2[8:1],,7v5<6-8[4:1],,1>5[8:1],,,{4}7-3[8:1],
2-6[8:1],5-1[8:1],4-8[8:1],
7-3[8:1]`4-6[8:1],4>1[8:1],5<8[8:1],5qq6-4[8:5]`3pp2-4[8:5],
,,,Ch[8:1],
{16}E8`D8,E2`D2,E6`D6,E4`D4,,,E1`D1,E7`D7,E3`D3,E5`D5,,,1-4[8:1],5-8[8:1],1-6[8:1],5-2[8:1],
{1}1x>2>3<4<5<6<7>8>1[4:5],
{8},,,,,6x-8[8:1],5x-1[8:1],6x-2[8:1],
,,{4}5x-3[8:1],{8}5,2-6b[8:1],,2b/1b-5b[8:1],
,1b/8b-4b[8:1],,8b/7b-3b[8:1],,7b/6b,{32},,,,,4/5,3/6,2/7,
{4}8z4[8:1]`1s5[8:1],8b/1b,2-7[8:1]/7-4[8:1],2-5[8:1],
6-1[8:1]/2-7[8:1],2/6,{16}2,4,3,5,4,6,5,7,
{4}6-2[8:1],6/8-4[8:1],3-8[8:1],{8}5/3,7h[4:1],
{4}2q3[4:1],{8}5,7,,8h[8:1],{4}4-1[8:1],
{1}C`4q5-8-3-6-1-4-7-2[8:13],
{4},,,,3<5[4:1],
5<8[4:1],8>4[4:1],4<8pp3[4:3],
{1}8qq5[2:1],
{6}1>4[4:1],A8,A7,6>3[4:1],E7,E3,
1-5[4:1],B8,B6,4-8[6:1],A3,D2,
4>8[4:1],{12}A1,8<4[4:1],,,{4}4>8[4:1],{12}8p5-2[4:3],A7,,,,,,,,,,,,,,{4}1-5[8:1]`8q6[8:1],
1>3[8:1],7>1[8:1],5<7[8:1],
3<5[8:1],3qq1[8:1]`7qq5[8:1],{2}3<6[8:1]`7>2[8:1],
{4}4-8[8:1]`7-5[8:1],4<7[8:1],1-5[8:1]`4-2[8:1],1pp8[8:7],
{1}7qq8[8:5],
2pp5>3[2:3]`6pp2<8[2:3],
{12},,,,,,,,,,,,A2,
{24}E3,E4,{48},{16}A4,{12}A7,{24}E7,E6,{48},{16}A5,{12}D2,{24}D3,D4,{48},{16}D5,{12}D8,{24}D7,D6,{48},{16}D5,
{24}A1,A8,E2,E8,B2,B7,E3,E7,B3,B6,B4,B5,E7,E6,E5,E2,E3,E4,D8,D7,{6}D6,
{32}3-6-1-4-7[2:3],4-7-2-5-8[32:47],{16}8-3b[8:1],{1},{4},,,{8},{1}6-3[4:7]`7-2[4:7],
E
