&title=Closed Wings
&artist=FELT
&first=0.05
&des=Nostalgia Op.2 No.12
&lv_5=13+
&inote_5=(181)
{1},,
{8},,,,,45,2b/7b,,
{8}1>4[8:1]/5,,6h[4:1],,5,4>1[8:1]/7,,7,8-4[8:1],,2,1h[4:1],,4,5/1,,
{8}2^5[8:1]/5,,5,6,7V51[4:1],1,2,3>8[8:1],,7<4[8:1],,3v6[8:1],,7,7,,
{8}8<5[8:1]/4,,3h[4:1],,4,5^8[8:1]/2,,2,1q5[8:1],,7,8h[4:1],,1,8/3,,
{8}6-4[8:1]/4,3,2,1^4[8:1],8,7,6,5bs1[2:5]*-8[2:5],,,,,,,,,,,,,,,,,,,,,,,,,
{8}8qq5[8:7]/1,,1,,1,,2,,3,,4h[4:1],,5,,5,6,
{8}4/7p4[4:3],,4,,3,,2,,1>4[4:1],,7,,6-4[8:1],7,6,,
{8}4qq1[8:7]/5,,5,,6,,7,,8h[4:1],,1,,8/1,,1,2,
{8}8/3V58[4:2],,8,,7,,6h[8:2],,8qq5[4:2],,,1,,1,2,3,
{8}4b/5b,,5,2-4[8:1]/6,,2/6,,8<5[8:2]/5,,4,3,2h[8:3],3V58[8:2],,
{8}3,2,1>4[8:1],,1,8-4[8:1],,2-6[8:1]/8,,2/7,,5<8[8:2],,1,2,3,4,,
{8}2/7<5[8:1],,7,1q5[8:1],,1/7,,6-3[8:1]*-4[8:1],,6,,2>5[16:3]/5,,
{8}2/5,6,7,2/8,3,3,2/8,7,8/1-4[8:1],2,1qq6[8:4]/8,,5,5,4,3,2,1w5[8:1],,
{8}1b,,,3,2/4,5,4/7,,1/8,1/8,,6,7/5,4,5/2,,6<1[8:1],5,4/6,,3>8[8:1],4,3/5,
{8}6qq1[8:3],,,1>4[8:2],1<6[8:1],,,,,2b/7b,
{16},3,4,,4,,3>8[8:1],,4,,5,,,,7<4[8:1],,2,,3,,,,
{16}1>4[8:1],,5,,6,,,,7p4[8:4],,,,3,,3,,,,2,,2,,1,,,,
{16}7,,1/8,,2,,3/4,,5,,1/6,,7b-5[8:1]/8b,,,,7b/4-8[8:1],,,,1-3[8:1]/4b,,,,
{16}1b/4w8[8:1],,,,4b,,,,,,
{32}2,3,4,5,6,7,8,1,
{8}2,,5-1[8:1]*-1[8:1],,4b,,3,2>4[8:1]/5,,2/5,6,7<5[8:1],,7/3,
{8}2,1q5[8:1],,1/6,7,8<4[8:2],,4pp8[8:3],3,2,1,,3,2q8[16:3],,
{8}2/8p2[16:3],,1w5[8:1],,1b,,,
{8}2>5[8:2]/7,,6,7,8,,2,1>4[8:2]/8,,4q8[8:2],,8-3[16:3],,
{8}5,6,7,4/8,1,2qq7[8:3],3,,4,,5p2[8:3]*pp1[8:3],,,,,,,
{16}3,4,2,5,
{8}1b>4[8:1],,1/5,7<5[8:1],,7/3,2,1V35[16:3],,1/6,7,8V64[16:3],,
{8}2,1,8>5[8:2],,,5,6,7pp2[8:3],,2,3,,
{8}4z8[16:8],5s1[16:6],,,,,,2bpp2[8:8]/7bqq7[8:8],,,,,,,,,,,,
{8}1-5[8:1]/8-4[8:1],2/7,1/8,,3qq4[8:3]/6,,8,7,6pp5[8:3],,
{8}3,3,2p1[8:3],,1,1<6[8:2],,6>3[8:2],,3bq7[8:13]*p7[8:13],
{4},,,,,,,,8-5[8:10]/1,1,2,2,3,3,4,5,
{4}3pp6[8:10]/6,3,2,2,1,1,8,7,
{8}6h[16:5],{16},8,,8,,,6h[16:5],,,1,,1,,,7h[16:7],,,2,,2,,2,,,3,,
{16}4,,2b-8[8:1]/5b-7[8:1],,3/4,,2/5,,,,1/6,,2,,3/7,,8,,
{4}1v3[8:1]/6v4[8:1],1v8[8:1]/6v7[8:1],1v4[8:1]*v4[8:1]/6,
{8}1/5,6,7,8,1-7[8:1]/2-4[8:1],,1/2,,5,6,
{4}7-3[8:1]/1-3[8:1],7-5[8:1]/1-5[8:1],1/7,
{8}4,3,2,
{16}1b/7b,,,6,5,,3-1[8:1]/4,,2,,3/4,,,,6-8[8:1]/5,,7,,6/5,,,,
{16}1v3[8:1]/8v6[8:1],,,,1/8,,,,,,
{16}2/7,,,3,4,,7-5[8:1]/8,,6,,7/8,,,,2-4[8:1]/1,,3,,2/1,,,,
{16}5v7[8:1]/4v2[8:1],,,,5/4,,,,,,
{16}1/8,,2/7,,3/6,,4-1[8:1]/5,,,,4/8-5[8:1],,,,8/1,,,,
{8}3,4/5,4,3/6,3,2/7,1b/8bp4[8:1],,8,3,
{16},3,4,,4,,2/5,,3,,,,3,,2/8,,2/8,,1/7,,6,,5-1[16:23],,,,5h[16:23],
{2},,,{8},5,,{16},
{8}1h[8:2],,,1h[8:2],,,6,,2h[8:2],,,2h[8:2],,,7,,3h[8:2],,,3h[8:2],,,
{8}8,4h[8:6],,5,,6,,7p6[8:3],
{8}2,,1h[8:14],,,5,,,6,,,,,6,,,7,1pp1[8:6]/8,,,,,,,,
{8}6-3[8:1],,2-7[8:1]/6,,2/6,
{32}5b-1[8:1]*-1[8:1],4,3,2,1,8,7,6,5h[8:2],,,,,,,
{8}2V48[16:3],,5,6v1[8:1],,6,3,2V46[16:3]/8,,6,7,8<4[16:3],,3,
{8}2,1q8[16:4],,,4,5,6/2,,4/5,3v8[8:1]/6<8[8:1],,3>1[8:1]/6v1[8:1],,6/3,,3,1/5,,
{8}2bpp2[8:8]/7bqq7[8:8],,,,,,,,,,,,
{8}3/5,,6p8[8:3]/2q8[8:3],,2/6,,,,6/2,,,,
{8}3h[16:7]/7h[16:7],,,,
{16}2-7[8:1]/6-3[8:1],1/5,4/8,,2b/6b,,,,
{8}7,8<5[8:1],1,2,3>8[8:1],4,5,6,7<4[8:1],
{8}8,1,2,3,4,2/5,,
{8}1>4[8:1],8,7,6<1[8:1],5,4,3,2-7[8:1],,6-3[8:1]/2,,
{8}1w5[8:1]/6,,1,,,
{8}2,1>4[8:1],8,7,6<1[8:1],5,4,3,2>5[8:1],
{8}1,8,7,6,5,7/4,,
{8}8<5[8:1],1,2,3>8[8:1],4,5,6,7>2[8:1],,3<6[8:1]/7,,
{8}8w4[8:1]*w4[8:1]/3,,8,,,
{8}2b-7[8:1],3,4,5-2[8:1],7,8,1-6[8:1],2,3,4-1[8:1],5,6,7,8,1/6,,
{8}1-4[8:1],8,7,6-1[8:1],5,4,3,2-5[8:1],5V38[8:2],6-1[8:1],,
{8}6b,,2b/7b,,,
{16}2/5,,,3,4,,4,,2,,1,,2,,
{8}3>8[8:1]/8,7,6,5,4-7[8:1],3,2,8-4[8:1],,
{8}8/1,,6/3,7,4/8,4/8,3/7,2-7[8:1]/6-3[8:1],,2b/6b,
{48},,,,,,,
(160){8}5w1[8:1],,
(140){8}5b,,
{24}2/7,3/6,
{4}4/5s1[8:30],,,,,,,,,
{16},,8b,,,,
