&title=メルト
&artist=supercell
&first=0
&des=SuzuRin
&cabinet=SD
&clock_count=4
&des_5=Rin
&lv_5=12.6
&inote_5=(170){4},,,,6h[4:3],
8,2,4h[4:3],
2,8,{2}6h[4:5],
{4}4,2,8,8h[4:3],
2,4,{2}6h[4:5],
{4}8,2,4,4h[4:3],
2,8,6,{8}3-8[1:1],3,
{1}3,
7-4[4:3],
{4}2b,3,4,5,
{8}6,6,{4}5h[2:1],,4,
3,{8}4,4,{4}5,6,
4/5,3/4,4/5,6/5,
{2}7-4[4:1],8-3[4:1],
7-4[4:1],8-3[4:1],
{1}7>2[4:5],
{4},,,,2b,
7,8,1,
{8}2,2,{4}1h[2:1],,8,
7,{8}8,8,{4}1,2,
8/1,1/7,8/1,8/2,
{2}2-5[4:1],1-6[4:1],
2-5[4:1],1-6[4:1],
{1}2<7[4:5],
{4},,,,6/5,
1/2,5/4,8/7,
2/3,6/5,8/1,2-6[4:1],
1,1-5[4:1],8,8-4[4:1],
7,7-3[4:1],{2}5b,
{4}1/2,5/4,8/1,3/4,
7/6,5/4,2/3,8-5[4:3]/1-4[4:3],
,,,,3h[2:1],
1,5h[2:1],8,
3h[2:1],7,,,6/3,
7/2,1,8,
{8}1-4[4:1],,,5,{4}5,8/1,
5>2[4:1],5,4<7[4:1],4,
1-5[4:3],{8}2,2h[8:5],,,,,,,{4}6/3,
7/2,8/1,
{8}8-5[4:1],,,4,{4}4,1/8,
8/7,{8}8,1,,,{4}1/8,
{1}2-5[2:1],
{4}6/3,7/2,8,1,
{8}8-5[4:1],,,4,{4}4,1/8,
4<7[4:1],4,5>2[4:1],5,
8-4[4:3],{8}7,7h[8:5],,,,,,,{4}3/6,
2/7,1/8,
1-4[4:1],{8}5,5,,,{4}8/1,
1/2,{8}1,8,,,{4}8/1,
{1}7-2[1:1],
{4},,,6/5,
{8}6h[8:3],,,7,,,{4}3/4,
{8}3h[8:3],,,2,,,{4}5/4,
{8}5h[8:3],,,4h[8:9],,,,,3,
3,{4}3b,,,{2}8h[1:1],
6,
1h[1:1],2,
6h[1:1],7,
4h[1:1],3,
7h[1:1],6,
2h[1:1],3,
8h[8:13],5,
{4}1,{8}7,6,,1,,,5h[8:3],
,,6h[8:3],,,{4}7h[8:3],
{8},8<5[4:1],,,{4}1,2,
{2}4h[1:1],1,
{4}8>3[4:1],3<6[4:1],{8},,,,4,
4,5,5,6,6,7,6,
5,5,4,4,3,3,{4}2,
{8}8b/6b,,,1b/3b,,,{4}8b/1b,
{8},5b/4b,,6b/3b,{2}6b/3b,
{4}3h[4:1],5h[4:1],7h[4:1],1h[4:5],
8,6,{2}4,
{4}7h[4:1],5h[4:1],3h[4:1],1h[4:5],
4,6,{2}8,
{4}8,1/2,2/3,3/4,
8,7,6,{8}5-2[1:1],5,
{1}5,
1-6[4:3],
{8}4-1[4:1],,,8,{4}8,5/4,
8>3[4:1],8,1<6[4:1],1,
4-8[4:3],{8}3,2h[8:5],,,,,,,{4}7/2,
6/3,5/4,
5-8[4:1],{8}1,1,,,{4}4/5,
5/6,{8}5,4,,,{4}4/5,
{1}3-8[2:1],
{4}7/2,6/3,5,4,
{8}5-8[4:1],,,1,{4}1,4/5,
1<6[4:1],1,8>3[4:1],8,
5-1[4:3],{8}6,7h[8:5],,,,,,,{4}2/7,
3/6,4/5,
4-1[4:1],{8}8,8,,,{4}5/4,
4/3,{8}4,5,,,{4}5/4,
{1}6-3[1:1],
{4},,,7/8,
7h[8:3],{8}6,5,,,{4}2/1,
2h[8:3],{8}3,4,,,8,1,
{4}8h[8:3],{8}1,1h[8:9],,,,,2,
2,{4}2b,,,6h[4:3],
2,7,4h[4:3],
7,2,{2}6h[4:5],
{4}8,3,1,8h[4:3],
6,3,{2}6h[4:5],
{4}2,7,3,4h[#1.764709],
2,8,6,{8}3,2,
(150){1}1h[#1.600006],
(73)8h[#3.287674],
(79)4b,
5b,
E
