&title=オンディーヌの泪
&artist=かねこちはる
&first=0.01
&des=ふわふわクラゲ
&lv_5=14
&inote_5=(115)
{1},
{16}
5w1[32:19],,,,,,,,,,,,,,,,
3,4,5,6,,4h[8:1],,5h[8:1],,3,4,,2,,,,
6,5,4,3,,5h[8:1],,4h[8:1],,6,5,,7h`4,,,,
3,4,5,6,,3h[8:1],,5h[8:1],,4,6,,3,,,,
8,1,7h[8:1],,2,1,3h[8:1],,6,4,5,,34,,,,
1<6[32:8],8,,2,1,,,,,,,6,6,5,,4,
4<7[32:6],5,,3,4-1[8:3],,,,,,,,,,,,
8>3[32:6],1,,7,8,,,,,,,{32}3,4,3,,5,,4,,6,,{16}
6>3[32:6],,,7,6,,,,{32}8,7,6,5,4<8[32:5],3,2,1,8,7,6,5,
{16},,
3-8[32:4],,,,4b,,,,6h[16:1],5h[16:1],7,,3,5h[8:1],,4,
6-1[32:4],,,,5b,,3,3,4>1[8:1]*<7[8:1],3,3,,,,,,
8-5[32:4],,,,1b,,,,3,6,5,7,3,4,5,6,
4-1[8:1],,,,5b,,7,7,3<6[8:1],1,1,,
{8}7<7[8:20],,,,,,,,,,,,,,,,,,
{16},
4,,4,,4,,4,,4,,4,,4,5h[16:1],4,6h[16:1],
5,7h[16:1],4,8qq8[32:8],3,1h[16:1],2,8z4[16:3],,,,,,,,
1bV38[8:1],,8bV25[8:1],,,,,,6h[8:1],,4h[8:1],,
2p6[16:2],4,6p2[8:1],4,2<3[32:8],,,,,,,,1h[8:2],,,,4,2,6,2,
8bV64[8:1],,4bV61[8:1],,,,,,2h[8:1],,8h[8:1],,
6-2[16:2],8,2-6[8:1],8,6<5[32:8],,,,,,,,8h[8:2],,,,4,6h[16:1],2,6h[16:1],
8,6,5,6,3s7[32:11],4,1,4,3h[8:4],,,,,,,,
8,3,4,3,6,5,8,5,6,3,4,3,{32}5,4,5,4,5b,,,,
3<6[8:1],4,3,4,2,,2,,,,,,,,,,
7p3[8:1],5,7,5,8,,8,,,,,,,,,,
1bs5[8:1]*-5[8:1],,,,,,,,,,,,,,,,
34,,,56,,,18,,2,7,2,7,
(230)
{16}1-5[8:1],,,,1b/1?b-5[230000#8:1000]*-5[230000#8:1000],,,,{8}8-5[8:1],,
85,,3,4/2-5[8:1],,27,8-4[8:1],,8/4V68[32:7],3,3,,
2>5[8:2],,5<8[8:2],,8>3[8:2],,3<6[8:2],,6,,8,8,
{12}8,7,6,4pp5[32:9],3,2,1,,,1-4[8:1],,,
{8}
14,,6,5/7-4[8:1],,72,1-5[8:1],,1/5V31[32:7],6,6,,
7<4[8:2],,4>1[8:2],,1<6[8:2],,
6>3[8:2],,3<8[16:6],,1,1,,3,3,,
{12}3,5,4,7,5,6,1>5[32:6],,,15,,,
{8}6q2[32:4],,65,5>1[32:6],,65,6,,
{12}6,4,5,2,4,3,8<4[32:6],,,48,,,
{8}2q6[32:4],,21,1<5[32:6],,21,2,,
{12}2,5,3,7,4,6,1-4[8:1],,,81,,,
{8}6V47[16:4],,63,2-6[8:1],,2,8h[8:2],,
{16}5,6,5,6,4,7,4,7,3,8,3,8,2,1,2,1,
3,4,5,6,7qq7[16:4],8,1,2,3qq3[16:4]/7,,,,3,,,,5b,,,,
{8}
2>5[8:1]/6,,
2/8<5[8:1],,8,3-8[8:1],4,3,7V53[32:6],,3<8[32:8]/7,,8,,
1>4[8:2],,4q1[8:2],,1q5[8:2],,5<8[32:7],,8,,5,5,
{12}1,2,3,5qq4[32:9],6,7,8,,,8<5[8:1],,,
{8}
8/1>4[8:1],,1,6-1[8:1],5,6,2V46[32:6],,6>1[32:9]/2,,1,,
7bqq8[32:12],,7b,3bqq4[32:12],,3b,,5b,
{16}5,6,7,8,1,2,3,4,
{8}51,,37,,
1b/5b,,6h[8:1],5h[8:1],4<7[32:5],,2,,3,3,6,5,
8b/3b,,2h[8:1],4h[8:1],6>2[32:6],,8,,6,6,2,4,
{12}
1,8,1,7,1,6,
1,5,1,4,2,5,
3,6,4,7,5,6,
3,4,3,5,4,6,
{8}
5b-1[16:13],,,,,,
6,,6h[8:3],,,5h[8:3],,,4h[8:2],,
3b-6[8:6],,,,,,,,8h[8:4],,,,
{32}2b,,7b,,4b,,5b,,1b,,,,,,,,
{16}
8,7,6,5,4,3,2,1,38,4,5,6,7,8,1,2,
7,6,5,4,1,2,3,4,5/8<5[32:4],,,,,,,,
1,2,3,4,1,8,7,6,2,3,4,5,2,1,8,7,
3,4,5,6,8>4[8:2],7,6,5,4,,,,,,,,
8,1,2,3,4,5,6,7,4-8[16:3],3,2,1,4/8>6[8:4],,,,,,,,,,,,,,,,2h[8:1],,6h[8:1],,
1,8,7,6,5,4,3,2,5,6,7,8,1V75[8:2]/5V31[8:2],,,,,,,,,,,,51,26,37,48,1b/5b,,,,
3,5,3,5,3,5,3,5,2,4,2,4,1,2,3,4,
8,1,2,3,4,5,6,7,3,4,3,4,2b,,,,
6,4,6,4,6,4,6,4,7,5,7,5,8,7,6,5,
1,8,7,6,5,4,3,2,6,5,6,5,7b,,,,
3,7,3,7,3,7,3,7,2,6,2,6,1,2,3,4,
51,2,3,4,1,2,3,4,6,7,8,1,6,7,8,1,
6b,,3h[8:1],,4h[8:1],,2h[8:1],,8b,,4h[8:1],,6h[8:1],,5h[8:1],,
{24}8,7,6,5,4,3,2,1,8,7,6,5,
{32}1,2,3,4,5,6,7,8,1-5[8:1],2,3,4,5,6,7,8,
{8}1b<1[8:41],,,,,,,,,,,,,,,,,,,,,,,,,,,,
{24}7,6,5p8[24:37],,,,{8},,,,,,,,,,,,,,,,,,
{12}5,3,5h[48:10],{8}3h[8:2],,
{12}6,4,6h[48:10],{8}4h[8:2],,
{12}7,5,7h[48:10],{8}5h[8:2],,
{4}8h[8:4],,
{8}5h[8:3],7h[8:2],,,,,,,,,,{16}4,3,{8}2h[8:3],4h[8:2],,,,1h[8:5],,,,,{8}4,4>5[16:55],
{4},,,,,,,,,,{16}1,1,1,1,1,1,1,1,1<5[32:4],1,1,1,
