&title=Obelisque
&artist=ESTi/M2U
&first=1.247
&des=小小白虹
&lv_5=14
&inote_5=(130)
{16}54,,6,5,6,,{8}6xh[8:3],,B3,E2,,
{16}34,,2,4,2,,{8}2xh[8:3],,5,6,,
{16}54,,6,5,6,,{8}6xh[8:3],,E2,C,E4,
{16}8h[8:1],,4,8,4,,{8}7x/5xz1b[4:1],,,,,
{16}
3xb/5xb-1[8:1],,,6,5,,7-5[8:1],,,8,7,,1,,24,,
3xh[8:1],,E7,,3xh[8:1],E1,,,3xh[8:1]/E6,,,C,3xh[8:1],,E5,,
2-4[8:1],,,1,2,,7-3[8:1],,,3,7,,1,,82,,
3xh[8:1],,E5,,3xh[8:1],C,,,{4}1xw5[8:1]/E1,,
{16}
6/4-8[8:1],,,3,4,,2-4[8:1],,,1,2,,8,,75,,
6xh[8:1],,E3,,6xh[8:1],E1,,,6xh[8:1]/E4,,,C,6xh[8:1],,E5,,
7-5[8:1],,,8,7,,2-6[8:1],,,6,2,,8,,17,,
6xh[8:1],,E5,,6xh[8:1],C,,,{8}57,6,{16}4,5,4,,
{8}3b/6b,3/6-4-8-2[16:7],,{16}1,,,3,,,{4}5-1[8:1],
{8}8,8-4-2z6[32:17],,2,1-5[32:5],,,,
{8},6/3-5-1-7[16:7],,{16}8,,,6,,,{4}4-8b[8:1],
{4}4xpp4b[4:2]`4?qq4[4:2]`Cf,,,,
{16}
6b-4[8:1]/3b,,,4x-7[8:1],6,,2-6[8:1],,1,,8x-5b[8:1],,7,,48,,
3,3,4,2,5,4,6h[8:1],,5,5,7,1,8,,37,,
2-4[8:1],,,4x-8[8:1],2,,6-3[8:1],,5,,1x-5b[8:1],,2,,18,,
7,7,4,5,3,6,2h[8:1],,7x,8x,5,4,1x,2x,7,7,
3-5[8:1],,,5x-2[8:1],3,,7-3[8:1],,8,,1x-4b[8:1],,2,,51,,
6,6,5,7,4,5,3h[8:1],,4,4,2,8,1,,26,,
7-5[8:1],,,5x-1[8:1],7,,3-6[8:1],,4,,8x-4b[8:1],,7,,81,,
2,2,5,4,6,3,7,8,7,,45,,36,,2,1,
{8}
2bqq6<3b[4:3],,5,6xh[4:1],,,E5/B5,,
5pp4>6[16:11],,1,2xh[4:1],,,B3/E4,,
{4}4qq3z7[8:5]*pp5s1[8:5],,,,
{16}E2,E6,E3,E5,B1,B6,B3,B4,E1,E7,E3,E5,1x,7x,3x,5x,
{8}
2-5[8:1],5qq1[16:7],2,8xh[4:1],,,B7/E8,,
7-3b[8:1],3qq6b[16:7],7,1xh[4:1],,,E1/B1,,
2-6[8:1],2,8<5[8:1],8,{16}3xh[16:3],,,4x,,,2xqq2[32:9]/5xpp5[32:9],,
{8}2x/5x,,,,3-7b[8:1]/4-8b[8:1],,34,,
{16}
5b/6b,,7,5,7,,7,3,7,,7,1,7,8,7<4[8:1],6,
7xh[4:1],,,,,,3,4,3>8b[8:1],,,8-4b[8:1],,,7,,
6<1[8:1],,,1-5[8:1],,,2xh[4:1],,,,,,34,,5,,
2V48[4:1]/6,,,7V51b[4:1],,,,,,,,,2,,13,,
4xh[16:3]/8x,,,7,5qq1[16:7],6,5,7xh[16:3],,,,,B7/E8,,,,
7-3b[8:1],,3qq6b[16:7],,7,,1xh[4:1],,,,,,E1/B1/B8,,,,
{8}7/5xh[8:1],6,2/4xh[8:1],3,4b/5b,{16}6,5,8b,,3,4,
{1}1bpp4b[4:2]`5bpp8[4:2],
{8}3b/6b,3x>6[16:7]/6x,,{16}E1,,,C,,,4x-8[8:1],,,,
{8}3x,3xqq4[4:2],,E8,E7,,E6,,
{8},6x<3b[16:7]/3x,,{16}E1,,,C,,,5x-1[8:1],,,,
{4}5xqq5b[4:2]`5?pp5[4:2]`Cf,,,,
{16}
3b-5[8:1]/7b,,,4x-1[8:1],3,,7-3[8:1],,8,,2x-6b[8:1],,1,,28,,
7,7,5,6,3,4,1h[8:1],,5,3,7,5,6,,47,,
8-4[8:1],,,3x<6[8:1],8,,1-5[8:1],,2,,7x>2b[8:1],,8,,73,,
4,4,5,3,7,5,6h[8:1],,8x,7x,4,5,2x,1x,3,3,
6-4[8:1],,,5x-8[8:1],6,,2-6[8:1],,1,,7x-3b[8:1],,8,,71,,
2,2,4,3,6,5,8h[8:1],,4,6,2,4,3,,52,,
4h[8:1]/8bh[8:1],,,2bh[8:1]/5h[8:1],,,7h[8:1]/5bh[8:1],,,3h[8:1]/4bh[8:1],,,3b/6b,,1b/8b,,
5,5,4,6,2,4,1,8,1,,75,,42,,5,4,
{16}
6bh[8:1],,4,5,2h[8:1],,4,3,7h[8:1],,5,6,1h[8:1],,3,2,
8h[8:1],,1,7,5,6,4,5,3h[8:1],,4,2h[8:1],,3,1h[8:1],,
8h[8:1],,6,7h[8:1],,5,6h[8:1],,2,4,,7,5,,6xh[8:1]/3xh[8:1],,
,,E7,E5,B8,B3,B6,B5,E1,E3,E7,E5,8x,2x,6x,4x,
7,5,8h[8:1],,4,6h[8:1],,5,7h[8:1],,4,8h[8:1],,5,6,,
2h[8:1],,5,3h[8:1],,4,1h[8:1],,5,3h[8:1],,4,2,,6,5,
7xV51b[4:1],,,3,,,2,,4xV26[4:1],,,1,,,7,,8xV62b[4:1],,,4,,,3,,5x-1-3[4:1],,,1,,,7,,
{16}
6bh[8:1],,5,7,3xh[8:1],,4,2,7xh[8:1],,6,8,2xh[8:1],,3,1,
7xh[8:1],,8,6,1,5,2,4,3,1,4,8,5,7,5,,
2,4,3,5,3,4,1,5,4,6,3,4,8,,5x/1x,,
7,5,6,4,6,5,8,4,5,3,6,5,1,,4x/8x,,
{16}
2x>5b[8:1],,,4-1[8:1],,,8x>3b[8:1],,,5-1[8:1],,,6x,,6,,
7x<4[8:1],,,5-8b[8:1],,,1x<6[8:1],,,4-8b[8:1],,,3x,,3,,
2x-6[8:1]*-5b[8:1],,,4x-1[8:1],,,,,7x-3[8:1]*-4b[8:1],,,5x-8b[8:1],,,,,
{32}1b>8[4:2],2xb,3xb,4xb,,,,,{4},,Cf,
{16}
1xb-3[8:1]/8xb,,7x,7x,1-5b[8:1],,5,,1-3[8:1],4,,,1x/6x,,7,,
6,6,4,8,2x,4x,8xh[8:1],,4,2,6,4,8,,26,,
7x-5b[8:1],,1x,1x,7-3[8:1],,3,,7-5b[8:1],4,,,7x/2x,,1,,
2,2,8,4,6x,8x,4xh[8:1],,8xw4b[8:1],6x,2x,,,,,,
8x-6[8:1]/1x,,2x,2x,8-4b[8:1],,4,,8-6[8:1],5,,,8x/3x,,2,,
3,3,5,1,7x,5x,1xh[8:1],,5,7,3,5,1,,73,,
2x-4b[8:1],,8x,8x,2-6[8:1],,6,,2-4b[8:1],5,,,2x/7x,,8,,
7,7,1,5,3x,1x,5xh[8:1],,1b,3,7b,1,D6/E6f,D2/E2f,D8/E8f,D4/E4f,
{4},4xb/5xb<4[4:10],,{32},,,,,,E2,E1,{1}E8,,
