&title=無路矢
&artist=MyGO!!!!!
&first=0
&des=woxxow
&lv_5=12+
&inote_5=(120)
{1},
{16},,,,,,,,,,,,,,2,4,
{16}3h[4:7],,,,8,,,,,,,,8,,,,
{16},,,,8,,,,,,,,8,,47,,
{16}5/6,,,,5/6h[4:1],,,,5,,4,,3,5,1-5[8:1],,
{16},,1/5,,7,,4,,35,,6,4,7-3[8:1],5,8,,
{16}1-5[8:1]/7,,,,1/6qq5[16:3],,,,3,,2,,1,,8-5[8:1]/6,,
{16},,8/5,,,,4,,12,,38,,1/2-6[8:1],,,,
{16}8-4[8:1]/2,,,,8/3pp4[16:3],,,,6,,7,,8,2,1-4[8:1],,
{16},,1/4,,,,5,,1/7,,2,,3/4qq7[8:10]*>1[8:3],,5,,
{16},,,,,,,,,,,,1,,,,
{16},,,,1,,,,,,,,1qq4[8:10],,,,
{16},,,,5,,,,,,,,5,,,,
{16},,,,5,,,,,,,,5,,64,,
{16}6/4^1[4:2],,,,8,,,,,,,,8,,71,,
{16}7^4[4:2]/1,,,,8,,,,1,,,,2,,34,,
{16}3/4q5[4:2],,,,5,,,,,,,,6,,75,,
{16}8/4-6[8:1],,,,7-4[8:1],,8,,3-7[8:1],,2,,7,,6,6,
{16}8^3[8:1],,4,,5-2[8:1],,6,,5/7v1[16:2],,8,,2,,3,3,
{16}1^6[8:1],,5,,4-7[8:1],,3,,4/2v8[16:2],,1,,7,,6,6,
{16}8^3[8:1],,4,,5-2[8:1],,6,,5/7v1[16:2],,8,,2,,3,3,
{16}1-5[8:1],,8,,1^3[12:1]/7v4[8:1],,,,1/7,,,,2/6h[4:1],,,,
{16}5^2[8:1],,1,,8q4[8:1],,7,,8/6v5[16:2],,5,,3,,2,2,
{16}4-8[8:1],,1,,2-6[8:1],,3,,12,,8,,75,,87,,
{16}25,,25,,12,,47,,47,,45,,6qq3[8:3]/3,,72,,
{16}1b,,1b,,1b,,,,{32}1b,8,7,6,5,4,3,2,{16}1V38[4:1],,,,
{16}1/8-4[8:1],,,,7-4[8:1],,,,7-3[8:1],,3-7[8:1],,7/2-5[8:1],,,,
{16}2qq7[8:3],,,,6^3[8:1],,,,6,,,,1V72[4:1],,,,
{16}1/5V36[4:1],,,,5,,,,1v6[8:1],,2,,3-5[12:1],,,,
{16}3/4>7[16:4],,,,7>5[16:4],,,,5v2[8:1],,,,8V61[4:1],,,,
{16}8/1-5[8:1],,,,2-5[8:1],,,,2-6[8:1],,6-2[8:1],,2/7-4[8:1],,,,
{16}7pp2[8:3],,,,3^6[8:1],,,,3,,,,8V27[4:1],,,,
{16}8/5-2[8:1],,,,5pp1[8:3],,,,1,,2,,3^8[8:1],,,,
{16}4^7[8:1],,5,,1^4[8:1],,2,,8,,7,,26,,3,3,
{16}4qq1[16:9]/7b^1[12:1],,,,7^5[12:1],,,,7^1[12:1],,,,7,,,,
{16}5pp8[16:9]/2-8[12:1],,,,2-4[12:1],,,,2-8[12:1],,,,2,,,,
{16}4qq1[16:9]/7^1[12:1],,,,7^5[12:1],,,,7^1[12:1],,,,7,,,,
{16}2-5[8:1]/7-4[8:1],,,,27,,,,{32}2bpp1[16:5],1,8,7,6,5,4,3,{16}2,,,,
{16}7^4[8:1],,,,1^4[8:1],,8,,6^1[8:1],,,,4^1[8:1],,5,,
{16}4^7[8:1]*q8[8:1],,,,4,,,,8/1,,1/2,,1-5[8:1]/3,,1/4,,
{16}1/5,,,,4qq2[8:1]/6pp8[8:1],3,7,,46,,,,3/7-3[8:1],,1/5,,
{16},,4,,5,4,3h[8:1]/6h[8:1],,,,1-5[8:1],,8<2[32:6],,1b,,
{16}8b,,,,1s5[16:3],,,,4,,6,,8,,2,,
{16}4/8<2[4:1],,5^2[8:1]*-1[8:1],5,8b,,,,,,47,,3-6[8:1]/8-5[8:1],2,1,,
{16}38,,,,{24}3,2,1,4,5,6,2,1,8,4,5,6,1-5[8:1],8,7,4,5,6,
{16}1b,,8,,37,,37,,26,,26,,15,,15,,
{16}4bV61[8:11]/8bV25[8:11],,,,,,,,,,,,,,,,
{16},,,,,,,,,,,,,,,,
{16}3^6[4:2]/5,,,,,,,,,,,,,,8,,
{16}1/7^2[4:2],,,,3,,,,3,,,,3,,4,,
{16}3h[8:1]/5,,,,4h[8:1],,5,,6/2h[8:1],,6,,5/4h[8:1],,5,,
{16}6h[8:1],,,,5h[8:1],,4,,7h[8:1]/3,,3,,5h[8:1]/2-5[8:1],,2,,
{16}6,,,,45,,34,,46,,24,,47,,41,,
{16}4^1[8:1]/8^5[8:1],,26,,4V61[16:5]/8V25[16:5],,,,,,,,,,,,
{16}2b^5[8:1]/6b^1[8:1],,,,2p6[8:1]*v5[8:1]/6,,,,2pp5[8:3],,,,6^1[8:1],,7,,
{16}6,,,,3/7V58[4:1],,,,3-1[8:1],,1-4[8:1],,3,,8,,
{16}7q3[8:1]*v4[8:1],,,,7,,,,23,,,1qq8[16:3]/4,,,5/8^3[8:1],,
{16}6,,,,7qq4[8:3],,,,7/1^4[8:1],,,,1,,,,
{16}45,,,,45,,6,,45,,3,,46,,7,,
{16}35,,2,,57,,8,,24,,1,,57,,1,,
{16}24,,8,,56,,13,,85,,64,,18,,6,6,
{16}3,24,,6,57,,1,8,{32}2,3,4,5,6,7,8,1,2,3,4,5,6,7,8,1,
{16}2-5[8:1]/6b,,,,2pp3[16:3]/6-1[8:1],,,,6pp7[16:3],,,,6,,,,
{16}3-8[8:1],,,,3qq2[16:3]/7-4[8:1],,,,7qq6[16:3],,,,7,,,,
{16}2-5[8:1],,,,2pp3[16:3]/6-1[8:1],,,,6pp7[16:3],,,,6,,,,
{16}3-8[8:1],,,,3pp5[16:2]/7qq5[16:2],,,,{32}37,,,,,,,,{32}8,1,2,3,4,5,6,7,
{16}8-4[8:1],,,,8/3pp4[16:3],,,,6,,7,,8,,1-4[8:1]*-6[8:1]/3,,
{16},,1,,,,5,,{24}87,,,4,6,5,7-3[8:1],,,{32},4,3,2,
{16}1-5[8:1]/7,,,,1/6qq5[16:3],,,,3,,2,,1,7,8-5[8:1]*-3[8:1],,
{16},,8,,,,4,,1/2,,{24}5,3,4,2-6[8:1],,,{32},5,6,7,
{16}2/8-4[8:1],,,,8/3pp4[16:3],,,,6,,7,,8,,1^4[8:1]*^6[8:1]/3,,
{16},,1,,,,5,,{24}87,,,2,5,4,7-3[8:1],,,{32},4,3,2,
{16}1-5[8:1]/7,,,,1/6qq5[16:3],,,,3,,2,,1,7,8^5[8:1]*^3[8:1],,
{16},,8,,,,4,,1/2,,{24}7,4,5,2,,,{24}8,4,6p3[24:19],
{24}2bqq7[24:18],
