&title=Dual Fractal
&artist=M2U
&first=-0.36
&des=FDShijing
&des_5=FDShijing
&lv_5=14
&inote_5=(160){4},,,,{2}6h[2:1],
{4}3h[4:3],5,
4,6h[4:1],4h[4:1],7h[4:1],
3h[4:3],6,5,4h[4:1],
2h[4:3],3,1,8,
3/7h[2:1],4,{8}5h[2:1],6,7,8,
{4}1h[2:1],{8}4,3,2h[2:1],1,8,7,
{4}6h[2:1],4,2h[4:3],8,
{2}4h[4:3],3h[4:1],
{12}7/1>6[2:1],,,,,6,{4}6,7,
{12}2/8<3[2:1],,,,,3,{4}3,2,
{12}7/1qq4[2:1],,,,,5,{4}5,6,
{12}1/7qq2[2:1],,,,,2,{4}2,3,
{2}4/6,{8}4,5,4,{24}3,{48},,E7,B6,
{4}B5,{8}6,5,{4}3,{24}2,{48},,,,,,,,E3,B3,
{4}B4,{8}6,4,5,3,2,{32}1,,,B1,
{4}8h[4:3]/C,5,4,3,
{8}5b/2b,{16}3,4,{8}2-6-4-8[8:3],1/6,{2}2h[4:1],
{8}7/3,{16}5,4,{8}6-2-8-4[8:3],7/3,{2}6h[4:1],
{8}6/2-6[8:1],1,8<2[4:1],1,{2}5h[4:1],
{8}3/7-3[8:1],8,1>7[4:1],8,{2}4h[4:1],
{8}1b/5b,{16}3,4,{8}3,2,1/6,{16}3,4,{8}3,2,
1/7,{16}3,4,{8}3,2,1/8,7,5/6,4,
3b/8b,{16}6,5,{8}6,7,8/2,{16}6,5,{8}6,7,
8/1,{16}6,5,7,3,4,2,{8}5qq1[1:1],5h[8:9],,,,,,,,,,,{4}7b/3b,
{16}E3,B3,B4,B5,{4}6,{16}E7,B7,B8,B1,
2,3,4,5,1,8,7,6,2,3,4,5,6,7,8,1,
{4}2/6h[4:1],{16}3,7,2,6,1,,,1,8-2[8:1],,,2,
8-3[8:1],,,3,8-4[8:1],,,4,{4}8,{8}5,4,
5/3,6,4/7-4[8:1],8,7/4,3,5/2-8[8:1],3,
2/5,6,3/7-3[8:1],8,7/3,2,1/7,1/7,
{16}2,6,4,6,3,7,5,7,4,6,2,6,3,7,5,7,
{8}2-5-1[16:3],5,2/6,7,8-4[8:1],3,{4}8/2,
2b/6b,{16}E7,B6,B5,B4,{4}3,{16}E3,B2,B1,B8,
7,6,5,4,8,1,2,3,7,6,5,4,3,2,1,8,
{4}7/3h[4:1],{16}6,2,7,3,8,,,8,1-7[8:1],,,7,
1-6[8:1],,,6,1-5[8:1],,,5,{4}1,{8}4,5,
4/6,3,5/2-5[8:1],1,2/5,6,4/7-1[8:1],6,
7/4,3,5/2-5[8:1],1,2/6,7,6h[16:1]/4h[16:1],6h[16:1]/4h[16:1],
7/3,{16}2,8,{8}2,7/3,{4}6/1-5[8:1],1/6-2[8:1],
6b/4b,{16}2,1,2,1,3,8,3,8,4,7,4,7,
{8}6/5,4/7,{16}7,8,7,8,6,1,6,1,5,2,5,2,
{8}3b/4b,{16}2,5,{8}1,7/8,6/5,{16}7,4,{8}8,1/2,
3/4,{16}2,5,{8}1,7/8,5/1,4/3,2/8,6/5,
7b/8b,{16}1,6,{8}2,3/4,1/2,{16}8,3,{8}7,{16}5,6,
4,7,5,6,3,8,5,6,{8}8/3,2bh[4:1]/6bh[4:1],,,{4}6/2>6[8:1],
{24}6b/2b,7,8,1x,{48},{16}2x,3x,4x,5x,6x,7bx/3x,3,8,4,
7,7,2,6,3,4,3,4,2/5,1,8,7,6/2,5,4,3,
{4}2/6<2[8:1],{24}6b/2b,3,4,5x,{48},{16}6x,7x,8x,1x,2x,3x/7,7,4,8,
3,3,6,2,7,8,7,8,{8}6x/1x,{32}1x,2x,3x,4x,{8}5b/7b,6,
{4}3x-8[8:1]`7x-3b[8:1],3b/7b,{16}4,1,4,2,5,7,5,8,
{4}6x-1[8:1]`1x-5b[8:1],1b/6b,{16}4,7,4,6,3,1,3,8,
{4}2x-6[8:1]`7x-2b[8:1],2b/7b,{16}1,3,1,4,8,6,8,5,
{4}7x-4[8:1]`4x-8b[8:1],4b/7b,{8}1/5,{32}2,3,4,5,{24}6x,7x,8x,1x,2x,3x,
{4}4x-1[8:1]`1x-6b[8:1],1b/4b,{16}7,1,7,4,6,2,6,3,
{4}7x-4[8:1]`4x-8b[8:1],4b/7b,{16}1,4,1,7,2,5,2,6,
{4}3x-7[8:1]`7x-4b[8:1],3b/7b,{16}5,1,5,4,6,2,6,3,
{4}2-6b[8:1]`7x-4[8:1],2b/7b,{16}7,4,7,5,8,6,8,7,
{8}1x,2,3,{24}4,,5xh[24:7],,,,{8}2,{12}4,6xh[24:7],{24},,{8}3,
5,1/7,2/6,3/5,4/6,7/3,2/8,
{4}1w5[8:1],{32}1bpp2-5[8:3]*qq8-5[8:3],B1f,Cf,B5f,{4},,{16},,{6}3/7,
{12}2,2,4,4,{6}5h[12:1]/3h[12:1],8h[12:1]/2h[12:1],4h[12:1]/3h[12:1],
6/2,{12}7,7,5,5,{6}4h[12:1]/6h[12:1],7h[12:1]/1h[12:1],3h[12:1]/4h[12:1],
5/2-5[8:1],{12}6,2/6,{24},{8}7,{6}4/7-4[8:1],{12}3,7/3,{24},{8}2,
{4}1/6,{32}7b/8h[6:1],6,5,4,,,,,2b/1h[6:1],3,4,5,,,,,7b/8h[6:1],6,5,4,{96},,,,,,,,,,,,{6}6/2,
{12}7/4,6,5,4/7,{6}3h[12:1]/8h[12:1],4h[12:1]/5h[12:1],1h[12:1]/6h[12:1],
7/3,{12}2/5,3,4,5/2,{6}6h[12:1]/1h[12:1],2h[12:1]/7h[12:1],8h[12:1]/3h[12:1],
4/7v4[8:1],{12}3,7/3,{24},{8}2,{6}5/2v5[8:1],{12}6,2/6,{24},{8}7,
{6}8/3,{12}7,6/2,5,4,{8}3v8[8:1]/7-4[8:1],2/6,{4}3b/7b,
{8}1/5,1/5,{16}2,4,2,6,3,5,3,7,4,6,4,8,
{8}3/7,7/3,{16}6,2,6,3,5,1,5,3,4,2,4,3,
5/2,6,7,8,{8}1/2,3/7,{16}4/5,3,2,1,{8}7/8,2/6,
2/5,{16}3,4,{8}3-5[8:1],2/6,3b/7b-3[8:1],8,7b/3b,2,
{16}1/7,2,3,4,{8}5/6,7,{16}8/2,7,6,5,{8}4/3,2,
{24}1/6,2,3,7,6,5,2,3,4,6,7,8,{2}3b/1b,
E
