&title=赴大荒
&artist=塞壬唱片-MSR; Kirara Magic
&first=0
&des=kurene_saka 东升日头西降月 春寒有雨夏寒晴
&lv_5=13+
&inote_5=(165)
{1},,,
{8}45,4,3,,3,2,,2,
{8}1,,1,8,,8,7,6,
{8}45,5,6,,6,7,,7,
{8}8,,8,1,,1,2,3,
{8}54,4,3,,3,2,,2,
{8}1,,1,7h[8:3],,,,,
{8}45,5,6,,6,7,,7,
{8}8,,8,1,,1,2,3,
{8}54,4,3-5[8:1],,6,7-4[8:1],,2,
{8}1-5[8:1],,8,7-4[8:1],,1,2,3,
{8}45,5,6-4[8:1],,3,2-5[8:1],,7,
{8}8-4[8:1],,1,2-5[8:1],,8,7,6,
{8}54,4,3-5[8:1],,36,7-4[8:1],,27,
{8}1-5[8:1],,81,7-4[8:1],,71,2,3,
{8}45,5,6-4[8:1],,63,2-5[8:1],,72,
{8}8-4[8:1],,18,2-5[8:1],,28,7,6,
{8}45,,3-5[8:1],2,,7-4[8:1],8,,
{8}2-5[8:1],1,,8<5[8:1],4,3,2,1,
{8}54,,6-4[8:1],7,,2-5[8:1],1,,
{8}7-4[8:1],8,,1>4[8:1],5,6,7,8,
{8}45,,2-5[8:1],1,,7-4[8:1],8,,
{8}1-5[8:1],2,,8<5[8:1],4,3,2,1,
{8}54,,7-4[8:1],8,,2-5[8:1],1,,
{8}8-4[8:1],7,3,2,1>4[8:1],8,7,,
{8}56,47,3-5[8:1],2,3,7-4[8:1],8,7,
{8}2-5[8:1],1,2,8<5[8:1],4,3,2,1,
{8}34,25,6-4[8:1],7,6,2-5[8:1],1,2,
{8}7-4[8:1],8,7,1>4[8:1],5,6,7,8,
{8}46,37,2-5[8:1],1,28,7-4[8:1],8,71,
{8}1-5[8:1],2,17,8<5[8:1],4,3,2,1,
{8}35,26,7-4[8:1],8,71,2,1,28,
{16}3,7,2,6,1,5,8,4,{4}7-3[8:1],,
{8}2pp5[4:4]/8,7,8<5[8:1],1,8,,6,7,
{8},8,7-3[8:1]*qq8[4:1],,7,,,,
{8}7qq4[4:4]/1,2,1>4[8:1],8,1,,3,2,
{8},1,2-6[8:1]*pp1[4:1],,2,,,,
{8}1pp5[4:4]/7,6,7-4[8:1],8,7,,5,6,
{8}7-4[8:1],8,7-3[8:1]*qq1[4:1],,7,,,,
{8}8qq4[4:4]/2-5[8:1],,2,,{48}2,3,,{16},,,{8},2h[4:1],
{8},,2pp8[4:1],,28,7,6,5,
{8}4pp7[4:4]/1,2,1>4[8:1],8,1,,3,2,
{8},8,1>4[8:1]*p8[4:1],,1,,,,
{8}5qq2[4:4]/8,7,8<5[8:1],1,8,,6,7,
{8},1,8<5[8:1]*q1[4:1],,8,,,,
{8}5pp8[4:4]/2,3,2>5[8:1],1,2,,4,3,
{8}2>5[8:1],1,2<7[8:1]*q4[4:1],,2,,,,
{8}4qq1[4:4]/7,6,7<4[8:1],8,7,,5,6,
{8}7<4[8:1],8,7w3[8:1],,7,,,,
{4}3h[1:4],5,8,6,
{4}7,,5,7,
{4}6h[2:1],,,,
{4}4,5,6,7,
{4}6h[2:7],4,1,3,
{4}2,,3,4,
{4}3h[4:1],,3,2h[4:1],
{4},4>1[4:1],4<7[4:1],,
{4}3h[2:1],5,8,6/3h[4:1],
{8}7,3,{4}3h[4:1],7,5>7[2:1],
{4}6,7>5[2:1],6,5>7[2:1],
{8}6,7,{4}7>5[2:1],6,5,
{4}6h[2:1],4,1,3/6h[4:1],
{8}2,6,{4}6h[4:1],2,4<2[2:1],
{4}3,2<4[2:1],3,4<2[2:1],
{8}3,2,{4}2<4[2:1],3,4,
{4}3qq8[4:7],6,6,6,
{4}6,6,{8}8,7,6,5,
{4}6pp1[4:7],3,3,3,
{4}3,3,{8}1,2,3,4,
{4}3qq8[4:7],6,6,{8}7,7,
{4}6,6,6,{8}5,5,
{4}6pp1[4:7],4,3,3,
{4}2,2,{8}1,2,3,4,
{4}3qq4[4:3],7<4[8:1],7,7,
{8}7,8,1/7<4[8:1],,1/7,2,3,4,
{4}5/6pp5[4:3],2>5[8:1],2,2,
{8}2,1,8/2>5[8:1],,8<5[8:1]/2,,3/8,,
{4}4/3qq4[4:3],7<4[8:1],7,7,
{8}7,1,4>1[8:1]/7<4[8:1],,4w8[2:3]*w8[2:3]/7,,,,
{1},
{2},{8}5,4,3,2,
{8}1-5[8:1]/7,8-6[8:1],1,8-4[8:1],1-3[8:1],8,1-5[8:1],8>7[8:3],
{8}1,8,,,4,5,6,7,
{8}8-4[8:1]/2,1-3[8:1],8,1-5[8:1],8-6[8:1],1,8-4[8:1],1<2[8:3],
{48}82,3,,{16},,,{8},,6,5,4,3,
{8}8-4[8:1]/2,7-5[8:1],8,7-3[8:1],8-2[8:1],7,8-4[8:1],7>6[8:3],
{8}8,7,,,3,4,5,6,
{8}1-5[8:1]/7,2-4[8:1],1,2-6[8:1],1-7[8:1],2,1-5[8:1],2<3[8:3],
{8}1,2,,,6,5,4,3,
{8}8-4[8:1]/2,7-5[8:1],8,7-3[8:1],1-3[8:1],7,1-5[8:1],8-6[8:1],
{8}1,8-4[8:1],3>8[8:1],8,3-7[8:1],6-4[8:1],3,6,
{8}1-5[8:1],2-4[8:1],1,2-6[8:1],8-6[8:1],2,8-4[8:1],1-3[8:1],
{8}8,1-5[8:1],6<1[8:1],1,6-2[8:1],3-5[8:1],6,3,
{8}8-4[8:1],7-5[8:1],8,7-3[8:1],2-4[8:1],7,2-6[8:1],1-7[8:1],
{8}2,1-5[8:1],4>1[8:1],1,4-8[8:1],7-5[8:1],4,7,
{8}1-5[8:1],2-4[8:1],1,2-6[8:1],7-5[8:1],2,7,8,
{16}1,5,2,6,3,7,4,8,{8}5-1[8:1],7,7,8,
{8}2-5[8:1]/7,3,2/6-1[8:1],7,4<2[8:3]/6,,2,2<4[8:3],
{8},4,4-8[8:1]*>6[8:3],,,,,,
{8}7-4[8:1],6,7/3-8[8:1],2,5>7[8:3]/3,,7,7>5[8:3],
{8},5,5-1[8:1]*<3[8:3],,,,,,
{8}1-4[8:1],2,1/6-2[8:1],7,5<3[8:3]/6,,3,3>5[8:3],
{8},5,5-1[8:1]*>7[8:3],,,,,,
{8}8-5[8:1],7,8/3-7[8:1],2,4>6[8:3]/3,,6,6<4[8:3],
{8},4,4-8[8:1]*<2[8:3],,,,,,
{8}4-7[8:1],3,2/4-1[8:1],3,8>3[8:1],7,6/8-4[8:1],7,
{8}1/8<1[8:3],,6/8-4[8:1],,8,,,,
{8}5-2[8:1],6,7/5-8[8:1],6,1<6[8:1],2,3/1-5[8:1],2,
{8}8/1>8[8:3],,3/1-5[8:1],,1,,,,
{8}4-7[8:1],3,2/4-1[8:1],3,8>3[8:1],7,5-1[8:1],6,
{8}4/5<4[8:3],,8/5-1[8:1],,5<2[4:1],,5,,
{8}5-2[8:1],6,7/5-8[8:1],6,1<6[8:1],2,4-8[8:1],3,
{8}5/4>5[8:3],,1/4-8[8:1],,4>7[4:1],,4,,
{8}4<7[4:1],,2,3,4<7[4:1],,2,3,
{8}4<2[4:2],,2,,3,3,4,4,
{8}5>2[4:1],,7,6,5>2[4:1],,7,6,
{8}5>7[4:2],,7,,6,6,5,5,
{8}4V68[4:1],3,2,3,4V68[4:1],3,2,3,
{8}4V62[4:1],,2V86[4:1],,3,3,4,4,
{8}5V31[4:1],6,7,6,5V31[4:1],6,7,6,
{8}5V38[4:1],,8w4[4:1],,,,,,
{4}6h[4:1],7h[4:1],8h[2:3],,
{8}6,,,6,,,5,4,
{4}3h[4:1],2h[4:1],1h[2:3],,
{8}3,,,3,,,4,5,
{4}6h[4:1],7h[4:1],8h[2:3],,
{8}6h[4:1],,,6h[4:1],,,5,4,
{4}3h[4:1],2h[4:1],1h[2:3],,
{8}3h[4:1],,,3h[4:1],,,4,5,
{8}6-2[8:1],,6/3>5[8:3],,3/8h[2:3],,,,
{8}4,3,2,5,4,3,5,4,
{8}3-7[8:1],,3/6<4[8:3],,6/1h[2:3],,,,
{8}5,6,7,4,5,6,4,5,
{8}6-2[8:1],,6/3>5[8:3],,3/8h[4:5],,,,
{8}4,3,2,5,4,3,2-7[8:1],7V14[8:3],
{8}6h[2:1],,,,,,6-3[8:1],3V58[8:3],
{8}2h[2:1],,,,,,1,28,
{4}3V51[8:3],8-6[8:1],8,{8}2,8,
{8}3V15[8:3],7,6-8[8:1],,6,,1,7,
{4}6V48[8:3],1-3[8:1],1,{8}7,1,
{8}6V84[8:3],2,3-1[8:1],,3,,8,1,
{4}2V48[8:3],7-5[8:1],7,{8}1,7,
{8}2V84[8:3],6,5-7[8:1],,5,,2-7[8:1]/6-3[8:1],7V14[8:3]/3V58[8:3],
{8},,,,,,7-2[8:1]/3-6[8:1],2V85[8:3]/6V41[8:3],
{8},,,,,,2b/6b,4b/8b,
