&title=ハナタバ
&artist=MIMI
&first=0
&des=Rayton
&lv_5=13
&inote_5=(119)
{8},,,Ch[1:1],,,,,,,,,,,
{4}2>4[8:1],8,8<6[8:1],1,1>3[8:1],6,
{8}6xh[8:3],B1,B2,B3,
{4}7>1[8:1],B3,2>4[8:1],B8,6<8[8:1],B4,
{8}3xh[8:3],B7,B6,B5,
{8}5x<7[8:1],3,5,,2>4[8:1],7,2,,1<7[8:1],3,1,,
{8}1xh[8:3],B6,B7,B8,
{8}7<5[8:1],8,17,B2,3>1[8:1],4,35,B6,7>1[8:1],3,47,B2,
{8}8xh[8:3],B6,B5,B4,
{24}3x>1[8:1],,,,,4,3,,,5,,,
{24}6<8[8:1],,,,,4,6,,,3,,,
{16}2>4[8:1],,,1,2,,8,,
{8}17,26,35,B4,
{24}5<7[8:1],,,,,3,5,,,E3,,,
{24}2>4[8:1],,,,,7,2,,,E7,,,
{24}8>2[8:1],,,,,4,8,,,E4,,,
{16}3xh[4:1],,5<7[8:1],,,,4,,
{24}3>1[8:1],,,5,,5,3,,,6,,,
{24}5>3[8:1],,,1,,1,5,,,2,,,
{24}1<7[8:1],,,6,,6,1,,,5,,,
{8}6xh[4:1],8>2[8:1],,7,
{24}6<8[8:1],,,5,,4,6,,,4,,,
{24}3<5[8:1],,,2,,1,3,,,8,,,
{24}7>1[8:1],,,6,,4,7,,,5,,,
{8}4h[4:1],7<5[8:1],,3,
{24}3h[4:1],,,,,8,,,,E3,,,
{24}7h[4:1],,,,,1,,,,E8,,,
{8}7x/5,46,35,24,1x-5[8:1]/3,,1b/6x,,
{24}7>1[8:1],,7,,,2,
{16}7<5[8:1],,3,,7,,4h[4:1],,6,,7,,
{8}3-8[8:1]/6,7-3[8:1],3>5[4:1],7,5xpp7[8:1]*qq3[8:1],,C,,
{24}2x<8[8:1],,2,,,7,
{24}2>4[8:1],,,6,,6,2,,,5,,,63,,,25,,,
{8}1x>3[8:1],5-1[8:1],1<7[8:1],5,4qq2[8:1]*pp6[8:1],,C,,
{24}8x>2[8:1],,,3,,3,
{16}8<6[8:1],,4,,8,,5h[8:3],,7,,8,,
{8}1-6[8:1],5-1[8:1],1>4[8:1],5,7qq5[8:1]*pp1[8:1],,C,,
{24}3x>1[8:1],,3x,8,,8,
{16}3<5[8:1],,7,,3,,6,,47,,36,,
{8}2x-7[8:1],
{8}5-2[8:1],2-5[8:1],5,8qq6[8:1]*pp2[8:1],,C,,
{8}1xh[8:3],,{24},,B8,B7,,,
{8}6xh[8:3],,{24},,B4,B3,,,
{8}3xh[8:3],,{24},,E6,B6,,,
{8}7xh[8:3],B6,E5,B3,
{8}4h[4:1],5,{24},,5,E4,,,
{8}6h[4:1],4,{24},,4,E7,,,
{8}3h[4:1],5,{24},,5,E3,,,
{24}6,,6,4,,4,5,,5,3,,3,
{24}6>4[8:1],,6,3,,,6b,,,E4f,,,2x<8[8:1],,2x,7,,,2,,,E8,,,7<5[8:1],,7,1,,,7,,,E2,,,
{24}6,,6,8,,8,7,,7,1,,1,
{24}6>4[8:1],,2,2,,,6,,,E2,,,3>1[8:1],,6,6,,,3,,,E6,,,7<5[8:1],,1,1,,,7,,,E1,,,
{24}6,,6,5,,5,4,,4,3,,3,
{8}5<7[8:1],5,1p1[4:1],2,C,,,
{24}7,,1,7,,,2,,8,2p2[4:1],,,3,,,C,,,,,,,,,
{24}5h[12:1],,3,5,,,6h[12:1],,4,6q6[4:1],,,5,,,C,,,,,,,,,
{24}2h[12:1],,4,3,,,6h[12:1],,4,5q5[4:1],,,4,,,C,,,,,,,,,2b,,,
{24}3<5[8:1],,,3,,7,3p3[4:1],,,6,,,C,,,,,,,,,
{24}7>1[8:1],,3,3,,,7,,4,4p4[4:1],,,8,,,C,,,,,,,,,7,,3,
{24}8<6[8:1],,,8,,4,8q8[4:1],,,5,,,C,,,,,,3x,,,
{24}4>2[8:1],,8,8,,,4,,7,7q7[4:1],,,3,,,C,,,,,,4x,,,35,,,
{8}7<5[8:1],8,1>3[8:1],8,7x-4[8:1],8-5[8:1],,,
{8}6x<8[8:1],5,4>2[8:1],5,7x,6<1[8:1],1<5[8:1],,
{8}2>4[8:1],1,8<6[8:1],1,2x,1-5[8:1],5-2[8:1],,
{8}6,5,4/2,1/3,2/8x-4[8:1],,3x/8b,,
{24}2<8[8:1],,2,,,7,
{16}2>4[8:1],,6,,52,,5h[4:1],,3,,2,,
{24}6-1[8:1],,6,2-6[8:1],,2,6<4[4:1],,,2,,4x,4xqq2[8:1]*pp6[8:1],,,,,,Cf,,,,,,
{24}7x>1[8:1],,7,,,2,
{24}7<5[8:1],,,3,,3,7,,,4,,,36,,,74,,,
{24}8x-6[8:1],,8,4-8[8:1],,4,8-2[8:1],,,4,,,5pp7[8:1]*qq3[8:1],,,,,,C,,,,,,
{24}1x<7[8:1],,,6,,6,
{16}1>3[8:1],,5,,41,,4h[8:3],,2,,1,,
{24}8-3[8:1],,8,4-8[8:1],,4,8<5[8:1],,,4,,2x,2xpp4[8:1]*qq8[8:1],,,,,,Cf,,,,,,
{24}6x<8[8:1],,6x,1,,1,
{16}6>4[8:1],,2,,63,,3,,52,,63,,
{24}7x-2[8:1],,7,4-7[8:1],,4,7-5-1[4:1],,,4,,1x,1xpp3[8:1]*qq7[8:1],,,,,,C,,,,,,
{8}2x-4[8:1],1,7-1[8:1],6,3-5[8:1],2,8-2[8:1],7,4-7[8:1],3,2-5[8:1],1,
{8}8qq6[8:1],8pp2[8:1],,,
{8}7x-5[8:1],8,2-8[8:1],3,6-4[8:1],7,1-7[8:1],2,5-2[8:1],6,7-4[8:1],8,
{8}1qq2[4:1],1,6,6,
{24}5<7[8:1],,,5,,1,
{16}5>3[8:1],,2,,5,,1h[4:1],,6,,5,,
{24}1-3[8:1],,1,5-7-4[4:1],,5,1-4[8:1],,,5,,,1,,,,,,6,,6,4,,4,
{24}7>1[8:1],,7,3,,3,
{24}7<5[8:1],,,3,,,7,,,4,,,36,,,74,,,
{24}3,,7,4-2-5[16:5],,4x,6-8-5[16:3],,,4,,,6,,,,,,Ch[4:1]f,,,,,,B6/B7/B2/B3,,,,,,,,,,,,
{4}7<5[8:1],B1,3>1[8:1],B5,
{8}6h[8:3],B2,B3,B4,
{8}2>4[8:1],1,82,,6<8[8:1],5,64,,2<8[8:1],6,52,,
{8}1h[8:3],B3,B4,B5,
{24}6<8[8:1],,,4,,4,6,,,,,,
{24}4<6[8:1],,,8,,8,4,,,,,,
{24}8>2[8:1],,,3,,3,8,,,,,,
{24}8,,8,2,,2,4,,4,6,,6,
{24}8<6[8:1],,,1,,3,8,,,E3,,,
{24}3<5[8:1],,,2,,8,3,,,B7,,,
{24}6<8[8:1],,,5,,3,6,,,B4,,,
{24}3,,3,8,,8,5,,5,2,,,
{24}8xq1[1:2]/E3,B3,B4,,
