&title=캐치 캐치 (Catch Catch)
&artist=네이슨 (NATHAN)/Roar/Myrhee (644ultramarine)/Coll' 8va (644ultramarine)/SKINNER BOX/진리 (Full8loom)/Youra (Full8loom)
&first=0.015
&des_1=Zirco
&des_2=Zirco
&des_3=Zirco
&des_4=Zirco
&des_5=Zirco
&lv_5=13+
&des_6=Zirco
&des_7=Zirco
&des=Zirco
&inote_5=(138){4},,{16},,{24},{48}5h[48:85],4h[16:1],{4},,{96},{32}E8,
,,,,,,{16}B6,{4},{16},,{24},{12}2b,
{4},{16},,,C,,,,,,,,,{1}6xh[8:5]/4xh[8:3],
{4}3h[8:5]/5h[8:3],,,1x<5[16:3],
{8}1/2h[8:3],,,,,4/1,,6,
{16}7h[8:1]/5h[8:1],,,4h[8:1]/3h[8:1],,,{8}2/5,{2}1>4[8:1]/4<7[8:1],
{4}8h[8:1]/C,1h[8:1]/B5,{2}8-4[8:1]/4-1[8:1],
{4}2h[8:1]/C,8h[8:1]/B4,{2}2-5[8:1]/6-8[8:1],
{4}7h[8:1]/C,1h[8:1]/B5,{2}8-4[8:1]/4>1[8:1],
{16}5/2,,,6/4,,,{8}7/8,1-4[8:1],1,{4}5xh[8:1],
7h[8:1]/B4,2h[8:1]/C,1/5-8[8:1],B4,
2h[8:1]/B5,7h[8:1]/C,8/4-1[8:1],B5,
2h[8:3]/5h[8:1],B1,{8}6,5,{4}7/4,
8h[16:3]/2h[16:3],{8}2/8,1/7,{4}1h[8:1]/7h[8:1],3/5,
2h[4:1],{8}5,6,{4}7h[4:1],E1/B8,
{16}4h[16:3],,,3h[16:3],,,{8}2,{2}2-4[8:1]/4-6[8:1],
{4}7h[4:1],{8}4,3,{4}2h[4:1],4,
{16}4h[16:3],,,6h[16:3],,,{8}8,{2}7-5[8:1]/8-2[8:1],
{4}3h[4:1],{8}5,6,{4}7h[4:1],5,
{16}1h[16:3],,,4h[16:3],,,{8}6,{4}7p4[8:3],5,
3h[4:1],B1/E1/B8,{8}3,4,{4}5/2,
{16}6/7h[8:3],,,1,,,{8}3,5/4qq3b[16:3]*-6[8:1],7/2,,,{4}7h[8:1]/B5,
3/8V61-5[8:3],{2}4-2[8:1],
{4}3h[8:1]/E6,4/1V75[4:1],{2}2pp3[16:3],
{4}7h[8:1]/E2,8V26-4[8:3],{8}5,4-7[8:1],3,2,
{2}1>4[8:1]*<6[8:1],{4}5w1[8:1],5,
3h[8:1]/B7,4/1s5[4:1],{8}5>2[16:3],6,{4}7,
6h[8:1]/B2,4/8V61[4:1],1V75[4:1],{8}4,3,
{4}2-4[8:1],{8}5,6,{4}7-5[8:1],{8}7/8,1,
2,{16}6,5,6,5,7,3,8,1,6,3,{4}5V74[4:1]*-8-3-1[8:3],
{8}5,,,5,6h[8:1],8,3h[8:1],1<6[8:1],
5,4,3,1-5[8:1],,1/5,{4}7V13[4:1],
3V58[4:1],1,2-5[8:1],2/8,
6-8[8:1],6/3-1[8:1],{8}3/5,7,{4}7/8-5-2-4[8:3]*V61[4:1],
{8}8,,,8,6h[8:1],1-7[8:1]*-6[8:1],,1-5[8:1],
,1>6V42[8:5],,1,,,8,7,
{4}5-7-4[4:1],5/1-3[8:1],1-7[8:1],1/4,
{16}5,4,3,2,1,8,7,6,{4}E5,E1,
{8}5h[8:1],3,{16}5/3h[16:1],,,3,{8}5,5/3h[16:1],5h[8:1],3,
5h[8:1],3,{16}5/3h[16:1],,,3,{8}5h[16:1],3,{4}E1h[8:1],
{8}6h[8:1],4,{16}6/4h[16:1],,,4,{8}6,6/4h[16:1],6h[8:1],4,
{16}E1,,,E5,,,{8}E7/E3,{4}C,1qq4[2:3],
4b,B5,,B5,
,B5,6x-1b[8:1],6/4,
2-4[8:1],{8}8,7,{4}6-4[8:1],8,
{16}2h[8:1]/4h[8:1],,,3h[8:1]/5h[8:1],,,{8}6/4,{2}7-5[8:1]/5-3[8:1],
{4}Cf/5-1[8:1],{8}2,3,{4}4-6[8:1],1,
{8}7h[8:1],B5,3h[8:1],C,{2}1xq3[4:1]/5x<7[8:1],
{8}8x,7/2x-5[8:1],,2x/5,{4}7,8/1-6[8:1],
1/8-4[8:1],{8}8/1V36[16:3],2,1/8<5b[8:1],7,,,{4}3h[8:1]/B1,
7/4V25-1[8:3],{8}8-6[8:1],7,{4}8,
7h[8:1]/E2,8/5-1-3[16:3],5/6V84[16:3],6,
3h[8:1]/E6,1/4V62-8[8:3],{8}7,8>4[16:3],7,6,
{4}5<8[8:1],{8}5/4,3,1w5[8:1],2,{4}1,
7h[8:1]/B3,8/5s1[4:1],{8}5/2>5[8:1],3,{4}2,
8h[8:1]/B3,1/5V74[4:1],{8}4V68[4:1],3,1,2,
{4}3-1[8:1],{8}7/3,6,5-7[8:1],1,5/2,3,
{16}4,8,4,8,3,7,2,5,8,4,1,5,{4}2V86<3[2:1]*V48[4:1],
{8}2,,,2xh[4:1],,5,6h[8:1],8-6[8:1],
4,8/3,2,1-3[8:1]*-5b[8:1],,,,6,
{4}7v5[4:1],5s1[4:1],1V74[4:1],3-8[8:1],
{16}3,,,5,{8}1/6,7,8<4[8:1]/1p3[8:1],2,{4}1>6V41[2:1]/8V26b[4:1],
{8},,,7-3[8:1],,8<5[8:1]*-4[8:1],,8>3[8:1],
,8p6>7b[8:5],,4bxh[8:3],{16},,,,,,,,1x-5[8:1],
,,6,{8}1,7,8-6[8:1],{16}3,3,{8}8,2,
{16}1,5,3,5,1,6,2,8,{4}E5h[4:1],E1,
{8}8/3h[8:1],4,2/6h[8:1],5,4-8[8:1]/8-5[8:1],3/7,,,1/6h[8:1],
5,7/3h[8:1],4,6-1[8:1]/2-4[8:1],1/5,,,8/3h[8:1],
4,2/6h[8:1],5,4-8[8:1]/8<5[8:1],3/7,,,1/6,
{16}2,8/2h[8:1],,,4,3,{8}5v7[8:1],6/2,{4}E3h[8:1],
{8}7x/3xh[8:1],4,2/6h[8:1],5,8/4-1[8:1],C,,,2/6h[8:1],
5,7/3h[8:1],4,2/6-1[8:1],C,,,{4}6h[4:1]/2h[8:1],
{8}B5,3/4,2,1/5,3/8,C,
5/3,{16}6,6,{8}4,8/2,3-7[8:1]/5-1[8:1],2/6,,,C,
2,6h[8:1],5,7/3h[8:1],4,1/3h[8:1],4,
5h[8:1],2h[8:1],1h[8:1],3,6<1[8:1]/4q2[8:1],4/6,,,3xh[8:1],
{16}6,5,{8}8-6[8:1],6,1-5[8:1],1,7,8,
{16}6h[1:1]/E4,,,B8,,,{8}B4,1x-5[8:1],2x,{4}1xq4[1:1],
,,,,7bh[4:3],
B5,{8},,B4,3b,
{4}2bh[8:3],{8}B3,{16}1,8,7/2pp3[16:3]*>6[16:3],6,5,4,{4}2x,
Cf,5-7[8:1]/4-8[8:1],5/4>1[8:1],{8}4/6,5,
{16}4h[8:1]/8h[8:1],,,6h[8:1]/2h[8:1],,,{8}4/8,{4}3>8[8:1]/7<4[8:1],3>2-5V74[2:1]/7V16[4:1],
{8},,,8h[4:1],,5-7[8:1]*v8[8:1],4,5>2[8:1]*p1[8:1],
,5pp6>8[2:1],,5/3h[8:3],,,,5,
{4}4h[8:1]/B7,{8}3h[8:1]/1-5[8:1],4,1/6-8[8:1],8,6/2,4,
{16}5,6,7,8,1,2/6,3/7,4/8,{2}1h[4:1]/5h[4:1],
{8}3/4,1-7[8:1],6/5,1/3,2h[8:1],4,1/5,7/4,
6/5,8-2[8:1],3/4,8/6,7h[8:1],3,8/4,2/5,
3/4,1-7[8:1],6/5,1,2h[8:1],4,1/5,4/7,
{16}E7h[2:1],,,E3h[16:7],,,{8}Cfh[8:3],,,{4}E1,
{8}2x/1x,4x-6[8:1],7/8,4/2,3h[8:1],1,4/8,6/1,
7/8,5-3[8:1],2/1,5/7,6h[8:1],2,5/1,3/8,
2/1,4-6[8:1],7/8,4,3h[8:1],1,4/8,1/6,
{16}E1fh[2:1],,,E5fh[16:7],,,{8}Cfh[8:3],,,,,{4}1xh[8:1],
{8}1xh[8:1],4xpp8[2:1],{2}3p1b[8:3],
E
