&title=野摩托
&artist=郭镐鸣
&first=-0.05
&lv_5=13
&des_5=Yooimy
&inote_5=
(138){4},,,,C,
{2},{8}1,8,
{4}1>5[4:1],5<1[4:1],1>5[4:1],5<1[4:1],
1>5[4:1],5<1[4:1],{2}1w5[8:1],
{8}4b/3b,1,{16}6x,5,{8}7,6/5,8,{16}3x,4,{8}2,
3/4,1,{16}6x,5,{8}7,{4}1-5[32:3],7/1x,
{8}4/6,8,{16}3x,4,{8}2,5/3,1,{16}6x,5,{8}7,
4/6,8,{16}3x,4,{8}2,{4}8-4[32:3],{8}2/8x,1,
5/3h[8:1],4,4x/6h[8:1],5,5/2h[8:1],6,4x/7h[8:1],3,
7/1h[8:1],8,2x/8h[8:1],1,{4}1w5[32:3],1x,
{16}4x,5,4,5,3x,6,3,6,2x,7,2,7,1x,8,1,8,
{8}C,{16}E7,B6,{8}B5,B3,{4}Cfh[4:1],1b,
{8}6-4[32:3],3,2,1,{4}8-6[32:3],{8}4,3,
2-8[32:3],7,6,5,{4}4-2[32:3],{8}8,7,
6-3[32:3],4,3/6x,2,3-6[32:3],5,6/3x,7,
1,2/7,3/6,4b/5b,,2,1,8,
{4}7V58[16:3],3x,2V41[16:3],6x,
{8}8,8/2,1,1/7,6,3h[8:1],5h[8:1],4h[8:1],
8<5[8:1],4,3,2,1>4[8:1],6,7,8,
1/2,3/4,5/6,8bxpp4b[4:1]/7bxp4b[4:1],{2},{8}5/6h[4:1],
B2,5h[4:1],B8,4h[4:1],B6,3h[4:1],B4,
2h[4:1],C,1h[4:1],B5,8h[4:1],B3,7h[4:1],C,
6<8[16:1],4,6/5x,4,3>1[16:1],5,4x/3,5,
8,2/7,3/6,4b/5b,,B2,B7,C,
2>4[16:1],8,2/1x,8,7<5[16:1],1,8x/7,1,
8-4[8:1],B4/E4,B1/E2,E3/B3,{16}1-5[8:1],{8},{16}E1/B8,{8},E7/B6,
{16}8,1,8,1,7,2,7,2,6,3,6,3,5,4,5,4,
{8}Ch[8:3],{2},{8}B5,{4}B4,
{32}4x/5x,3x/6x,2x/7x,1bxs5b[32:7]/8bxz4b[32:7],{4},,{8},3/6,3/6,
8b/2b-5[32:3],4,2/6<1[32:3],7,6/4-8[32:3],5,2/4,3,
{32}1bx,2x,3x,4x,5x,6x,7x,8x,1bx,2x,3x,4x,5x,6x,7x,8x,{4}Cf/1bxw5[32:3],1b,
{8}5/3bh[8:1],1,4x/6bh[8:1],8,2b/4,8,7b/5x,2,
{4}8b<6b[16:1]*>2b[16:1],8bw4b[32:3],8bx,4/5-3[16:1]*-2[16:1],
5-7[16:1]*-8[16:1],5w1[16:1],5b/Cf,5/4-6[16:1]*-7[16:1],
4-2[16:1]*-1[16:1],4w8[16:1],4b/Cf,{8}1,8,
1/7,4,2/8,5,1/7,4,2/8,5,
B3/B4/E4,E7/B7/B6,{4}Ch[4:1],E1f/B8/B1,{8}5/4,6/3,
1b/7b-4[32:3],5,7/3>8[32:3],2,3/5-1[32:3],4,7/5,6,
{32}B8f,B7,B6,B5,B4,B3,B2,B1,B8f,B7,B6,B5,B4,B3,B2,B1,{4}B8f/4bw8b[32:3],4b,
{8}1/7bh[8:1],4,8x/2bh[8:1],5,7b/8,4,2b/1x,5,
3,6,{4}5/4bw8b[32:3],4bx,8/1-7[16:1]*-6[16:1],
1-3[16:1]*-4[16:1],1w5[16:1],1b/Cf,1/8-2[16:1]*-3[16:1],
8-6[16:1]*-5[16:1],8w4[16:1],8b/Cf,{8}3,5,
4h[4:1],8,6h[4:1],8,5h[4:1],8,6h[4:1],8,
{4}B2/B3/E3,B7/E7/B6,{2}B7/B6/B2/B3/Cf,
{8}8b/7b,5,{16}3x,4,{8}2,2/1,4,{16}6x,5,{8}7,
7/8,5,{16}3x,4,{8}2,{4}5-1[8:1],4/5x,
{8}8/2,4,{16}6x,5,{8}7,1/7,5,{16}3x,4,{8}2,
8/2,4,{16}6x,5,{8}7,{4}4-8[8:1],{8}5/4x,5,
4/6h[8:1],5,5x/3h[8:1],4,4/7h[8:1],3,5x/2h[8:1],6,
2/8h[8:1],1,7x/1h[8:1],8,{4}8w4[8:1],8x,
{16}8x,1,8,1,7x,2,7,2,6x,3,6,3,5x,4,5,4,
{8}C,{16}E3,B3,{8}B4,B6,{4}Ch[4:1],8b,
{1}C/E7/B7/B6/B8/B1/B2/E3/B3/B4/B5,
E
