&title=NightTheater
&artist=わかどり
&first=0
&des=FallingL -Sleepless City-
&wholebpm=151
&clock_count=4
&des_6=FallingL -Sleepless City-
&lv_6=14
&inote_6=(151){1},
{1},
{16}5h[16:3],,,4,,,,5h[16:3],,,4,,,36,,,
{16}4h[16:3],,,5,,,,4h[16:3],,,5,,,63,,,
{16}6h[16:3],,,5,,,,6h[16:3],,,5,,,47,,,
{16}3h[16:3],,,4,,,,2h[16:3],,,1,,,38,,,
{16}7h[8:1]/5,,,7,5,,,7h[8:1],5,,7,,5,6,,,
{16}3h[8:1]/5,,,3,5,,,3h[8:1],5,,3,,5,4,,,
{16}6h[8:1]/4,,,6,4,,,6h[8:1],4,,6,,4,5,,,
{4}7h[4:3]/4x>5[16:7],,,{32}E6,E7,E8,E1,E2,E3,E4,E5,
{16}7bx,,6,5,6,,3,4,3,,7,5,7,,2,4,
{16}2,,7,5,6,,2,4,3,,6,5,8,,3,4,
{16}1,,7,8,7,,2,1,2,,6,8,6,,3,1,
{16}3,,6,8,7,,3,1,2,,7,8,5,,2,1,
{8}3b-8[32:3],3,7-4[32:3],7,1-5[32:3],1,6<1[32:3],6,
{8}4-8[32:3],4,7-3[32:3],7,1>4[32:3],1,7,7,
{16}5,8,4,7,3,6,2,5,1,4,1,4,{32}1x,2x,3x,4x,5x,6x,7x,8x,
{16},6,6,5,,47,,18,,2,5,4,7,1,,,
{48}1bxs5[32:3]/8bxz4[32:3],27,36,{16}45,,,1b/8b,,,,3,4,2,2h[8:1],,8,1,,
{16}6,5,6,5,7,4,8,4,1,3h[8:1],,5,,4,6,,
{16}5,,6h[8:1]/4h[8:1],,,,6,5,7,4,5,3,4<1[4:1],2,4,,
{16}1-5[8:1],,1,,2,,2,,6/1x,2,3,4,51,8,7,6,
{16}3/5h[128:15],,4,,35,,6,,7,3,6,4,5,3h[8:1],,4,
{16}2h[8:1],8,8,,1,7,,7h[8:1],,5,6,4,,3h[8:1]/5h[8:1],,,
{16},,3,4,3,5,,46,,37,,28,,1,7,8,
{8}6hx[8:1],4,{16}5,3,,7,2,5,4,,{48}1b-5[32:3]/8b,27,36,45,,,{8},
{16}1b/7b,,,,2h[8:1]/6,,4,3,6,5h[8:1],,7h[8:1],,1,8,,
{16}2,5,3,4,2,5,1,6,8,7,,46,,5,3,,
{16}4,,3,4,25,,6,5,8,4,1,2,7-4[32:3],8,6,1,
{16}7/2x-5[32:3],,2x,,8x,,8x,,7x,5,6,4,5,3,4,2,
{16}6/1h[128:15],,4,,25,,3,4,2,5,4,7h[8:1],,5,6,5,
{16}8,1h[8:1],,3,,24,,35,,4,6,5,7,3,4,2,
{16}8h[8:1],,1,1,7,2,5,4,,36,,1,7,4,5,2,
{16}8-4[32:3]/1x,,7,,8/2v5[32:3],,1,,5x/2,6,7,8,1/4x,3,2,1,
{4}7h[4:3]/8b,{32}B3,B4,,,,,,,,,,,,,,,{48}3x-1-7-5-3[4:3],,,,,,,,,E4,B4,B5,
{1}E6,
{32}6h[4:3],,,,,,,,B4,E5,,,,,,,,,,,,,,,B4,E5,,,,,,,
{32}3h[4:3],,,,,,,,B5,E5,,,,,,,,,,,,,,,B5,E5,,,,,,,
{16}4b/6,,28,,35,,1-5[32:3]/7,,2,6>3[32:3],1b,,8,6b,,,
{16}8b/2,,64,,71,,5-1[32:3]/3,,6,2<7[32:3],5b,,4,2b,,,
{16}3b,6,4,5,2,7,4,5,3b,6,1,8,2-6[32:3],7,1,8-4[32:3],
{16}2b,,,8b,,,{48}1bx/5bxs1[4:1],26,37,48,,,{2},
{16}6h[8:1],,1,,5,1,,,4h[8:1]/2,,,2,5,,2,,
{16}6h[8:1],,1,,5,2,,,4h[8:1]/3,,,3,5,,4,,
{16}7h[8:1],,1,,6,1,,,5h[8:1]/2,,,2,4,,2,,
{16}5h[8:1],,1,,4,2,,,5h[8:1]/3,,,4,6,,5,,
{16}3h[8:1],,8,,4,8,,,5h[8:1]/7,,,7,4,,7,,
{16}3h[8:1],,8,,4,7,,,5h[8:1]/6,,,6,4,,5,,
{16}2h[8:1],,8,,3,8,,,4h[8:1]/7,,,7,5,,7,,
{16}4h[8:1],,8,,5,7,,,4h[8:1]/6,,,5,3,,4,,
{8}1-5[8:1]/6-8[32:3],8/5V38[4:1],16,,7-4[32:3],7,71,,
8-4[8:1]/3-1[32:3],1/4V61[4:1],83,,2-5[32:3],2,28,,
1-5[8:1]/4-2[32:3],8/5V74[4:1],14,,3>8[32:3],3,35,,
8-4[8:1]/5-7[32:3],1/4V25[4:1],85,,6<1[32:3],6,64,5,
{16}4b,1,3,8,2,7,1>4[32:3],6,8,5-1[32:3],1b,,6,5b,,,
{16}8b,5,7,4,6,3,5<8[32:3],2,4,1-5[32:3],5b,,2,1b,,,
{32}3b,,4,,2,,5,,1,,6,,8,,7,,2b,,1,,3,,8,,4-8[32:3],5,6,7,8,1,2,3,
{16}4b>1[16:1]*<7[16:1],,,4bw8b[16:1],,,4b,,,,,,2b/6b,,,,
{16}1>4[32:3]/7,,5,,16,6h[32:5],,5-1[32:3],,4,3,5,,2,3,4,
{16}56,,7h[32:1],4v7[32:3],5,1h[16:3],,4,,8,6,2,4,3,6,5,
{16}4-8[32:3]/7,,6,,45,5h[16:3],,7-2[32:3],,6,5,,4h[8:1],,3,,
{16}2-6[32:3]/4,,1,,28,8h[32:5],,7V51[16:3],,1,5,7,,4h[8:1],,,
{16}8<5[32:3]/2,,4,,83,3h[32:5],,4-8[32:3],,5,6,4,,7,6,5,
{16}43,,2h[32:1],5v2[32:3],4,8h[16:3],,5,,1,3,7,5,6,3,4,
{16}5-1[32:3]/2,,3,,54,4h[32:5],,2-7[32:3],,3,4,,5-1[32:3],,6,,
{16}7-3[32:3]/5b,,8,,7b/1xV35[8:1]*V75[8:1],,2,,1bw5[32:3],,,,1b,,,,
{16}7/1b<6[32:3],1,4,3,1,2,,2,1-4[32:3],3,3,,1/7,,5,5,
{16}1-6[32:3],6,,4,1,4,3,2,1>4[32:3]/5,5,,6,1,5,6,7,
{16}2/8>3[32:3],2,,7,8,7,6,5,8-5[32:3]/4,8,,3,8,3,2,1,
{16}8-3[32:3]/4,4,7,5,8,5,6,7,8<5[32:3]/3,3,1,2,8,1,2,3,
{16}4b-8[32:3]/7b,,,,43,,2,2,1-5[32:3],3,,7,1,6,,6,
{16}7b/4bh[4:1],,,,7V51[16:3],3,8,4,7,,3,,2V84[16:3],8,3,7,
{16}6bh[4:1]/2b,,,,7,3,6,5,8b,3,4,1,7-3[32:3],5,8,1,
{16}7b<4[32:3]/2,,,2,7b>2[32:3],,3,,7b/4,,,,4/7b,7,5,6,
{32}1b,,4,,3,,7,,4,,5,,1,2,3,4,5/6b,,,,8,7,6,5,42,,,,17,,,,
{48}2b/6b,3/5,4,,,,,,,2b/8b,37,4s8[8:1]*z8[8:1]/6,5,,,,,,{48}8b,17,26,35,4,,{16},,,,{32}8x-4[16:1]/3,4,5,6,7,8,1,2,
{1}3b/8b`B8`C`B4/A4f,
{1},
{1},
{1},
E
