&title=snooze (feat. 初音ミク)
&artist=wotaku; 初音ミク
&first=-0.01
&des=柠檬红茶
&lv_5=13
&lv_6=13+
&inote_5=(150)
{1}
,
{4}
E1f/B1/B8/B2/B7/B4/B5/Ch[4:15],,,6>3[2:1],
{1}
,
{4}
E1/B1/B8/B2/B7/B4/B5,,,6>3[2:1]<6[4:1],
{1}
,
{4}
4/5,B6/B7/B8/B1,4/5,B2/B3/B8/B1,
{4}
4/5,A6/D7/A8/D1,4/5,A1/D1/D3/A3,
{8}
5,5,4,4,
{16}
6x,3x,6x,3x,
{32}
6x,7x,8x,1x,2x,3x,4x,5x,
{8}
6bhx[1:1],,,B5/B4,B1/B8,,B2/B3,,
{16}
3,,,3,,,3h[2:1],,6-1[8:1],,1,,6,,,,
{16}
3/6,,,4,5x,,3h[2:1],,6x-1[8:1],,1,,6x,,,,
{16}
3/6,,,4,5x,,3h[2:1],,6x-1[8:1],,1,,6x,,,,
{16}
6/3,,,5,4x,,6h[2:1],,3x-8[8:1],,8,,3x,,,,
{16}
6/3,,,5,4,,6h[2:1],,3x,,8,,
{16}
1x,2,3,4,
{16}
1b/5bx,,,4,6,,3h[2:1],,4-1[8:1],,1-6[8:1],,4,,,,
{16}
4bx,,,5,3,,6h[2:1],,5-8[8:1],,8-3[8:1],,5,,,,
{16}
5bx,,,4,6,,3h[2:1],,4-1[8:1],,1-6[8:1],,4,,,,
{16}
4bx,,,5,3,,2/6,,
{16}
A7,A3,A8,A4,A1,A5,Cf,,
{16}
8bx,,,1,7,,2h[2:1],,1-4[8:1]-7[8:1],,C,,1,,,,
{16}
1bx,,,8,2,,7h[2:1],,8-5[8:1]-2[8:1],,C,,8,,,,
{16}
8bx,,,1,7,,2h[2:1],,1-4[8:1],,C,,1,,,,
{16}
5b/6b,,,3b/4b,,,1b/8b,,1x-4[16:1]b/8x-5[16:1]b,,,,
{4}
E5f/B4/B5/B3/B6/B1/B8/C,
{16}
Ch[8:1],,7x,B7,1x,B1,6x,B6,2x,B2,8x,B8,3x,B3,
{16}
6x,B6,4x,B4,7x,B7,3x,B3,5x,B5,2x,B2,8x,B8,,,,,
{16}
4/5,,,3,6-8[8:1]-4[8:1]-2[8:1],,6,,8,,1,,2,,1,,
{16}
5/4,,,6,3-1[8:1]-5[8:1],,3,,1,,8,,,,,,
{16}
3/6,,5,5,3/6,,4,4,3qq5[2:1]>2[4:1]/6,5,4,,3/6h[4:1],,
{8}
,,7,6h[4:1],,,
{8}
6,4/5,3,1/2,8,3/7,2,3/5,6,4/7,8h[4:1],
{8}
,1,2/7-3[8:1]-7[8:1],4/6,3h[4:1]/7,,,,
{8}
5x-7[16:1],5x-3[16:1],5x-8[16:1],5x-2[16:1],
{8}
5x-1[16:1],5x>1[4:1]pp4[8:3],5x,5x,,7,6h[4:1],,,
{8}
5h[4:1]/3h[4:1],,,8/7,1,6/2,7,6/5,4-8[8:1]-4[8:1],5/3,2h[4:1],
{8}
,,3/5-1[8:1]-5[8:1],4/6,7h[8:1],,,,
{4}
3h[4:1]/6h[4:1],,4>2[16:1]b/7<5[16:1]b,4/7,
{16}
4/5,,6,6,,2,1,2,3/8,,7,7,
{16}
,5,4,5,4-2[16:1],,6,6,4q6[4:1],,5,,4,,,,,,
{16}
8,2,1-6[8:1],,3,3,1q4[4:1],,2,,
{4}
1,C,
{16}
,,6,4,8x,,3,5,1x,,7,4x,,2,5x,,
{16}
5/4,,3,3,,7,1,8,1/2,,3,3,
{16}
,4,5,4,5-7[16:1],,3,3,5pp8[4:1],,4,,5,,,,,,
{16}
8x,1,8-3[8:1],,2,2,8V64[4:1]-2[8:1]>8[4:3],,1,,
{4}
8,,Cf,,,
{8}
2h[4:1],,4h[8:3],,,5h[8:3],,,6h[4:1],,
{8}
1h[8:3],,,7h[8:3],,,4h[4:1],,
{4}
5h[1:1],A7,A8,A1,A2,,,
{8}
4<6[4:1],,6<1[8:3],,,1>4[8:3],,,4<6[4:1],,
{1}
6<4[4:3]p6[2:1]<8[4:1],
{4}
Ch[8:3],,5h[4:1],,
{16}
3/6,,4,5,,2,,,5,4,,7,,,1h[16:1]/8,,
{16}
,,5,6,,3,,,6,5,,8,,,2h[16:1]/1,,
{16}
,,4,3,,6,,,3,4,,1,,,7h[16:1]/8,,
{16}
,,1,2,,5,6,,3,4,,7,8,,,,
{16}
3/6,,4,5,5,2,,,5,4,4,7>2[8:1],,,7h[16:1]/2,,
{16}
,,3,5,5,1,,,4,3,3,6<1[8:1],,,6h[16:1]/2,,
{16}
,,4,6,6,8,,,5,3,3,1<6[8:1],,,1h[16:1]/3,,
(50)
{4}
2x-6[24:1]b,
(300)
{4}
2x,,
(150)
{4}
4hb[4:1]/5hb[4:1],,
{16}
3hb[8:1]/6hb[8:1],,,2hb[8:1]/6hb[8:1],,,3hb[8:1]/7hb[8:1],,
{8}
,3-8[8:1]<7[16:1]/6-1[8:1]>2[16:1],2/7,3/6,,,6V85[4:1]q6[4:1],,
{16}
6/A4,D4,A3,D3,
{8}
,,2-6[8:1],8-4[8:1],2,8,3,2-6[8:1]/6,1/7,2/6,,
{8}
2/7,3-5[16:1]/6-4[16:1],3/6,3/6,C,7bx>6[4:1]*<1[4:1],
{16}
,,7,D1/D7,A2/A5,D4,,,
{16}
8,,,,1,1<5[4:1],,2/8,,1,2,,,3,,,B1/E2,,B4/E4,,,Chf[16:5],
{4}
,8xb,E1/B1/B8/B2/B7/B4/B5/C,
{8}
1/2,8,1/7,B1/B8,B6/B7/Chf[2:1],,5w1[16:1]b,,5>2[16:1],
{16}
7,7,5-1[16:1],,6,6,5,,8<5[8:1],2,,2,8s4[16:3]>1[16:3],,
{8}
,8,7,6h[8:1],,,
{12}
2x-5[8:1],2x,2x,
{8}
2/7-4[8:1],8,2>5[8:1]/7,1,2<6[8:1]<2[8:1],
{32}
E6,E7,E8,E1,
{8}
,,5-1[8:1]-7[16:1]*-1[8:1]-3[16:1],,5,A1,4h[8:1]/6h[8:1],,
{16}
3,5,3,5,3b,,4,4,
{8}
5-7[16:1],5qq3[8:1],5,,,
{16}
B6/B7,,,B2/B3,,,B5/B6,,,B1/B2,,,B4/B5,,,B1/B8,,,
{8}
4/8,4/8,1/5,1/5,2/6,2/6,3/7,3/7,
{16}
4,8,4,8,4,8,4,8,
{32}
4,5,6,7,8,1,2,3,B4,B5,B6,B7,B8,B1,B2,B3,
{16}
Chf[4:1]/4xw8[16:1]b,,,,
{8}
4xb,,3v2[8:1]/7v6[8:1],,3qq5[2:1]/7,,
{8}
3,7,6h[4:1],,,
{16}
3,5,3,,
{8}
4/6V84[8:1],7,1/6,2,6/3V15[8:1],5,3<5[8:1]/7>1[8:1],6,3/7,
{8}
,2/3,1<6[8:1]-2[8:1]/4<7[8:1]-3[8:1],5/8,1/4,,,,
{16}
4/7,,6,5,
{8}
6,,4-1[16:1]*-7[16:1],,4pp4[4:1]qq4[4:1],,4,8,7h[4:1],,,
{16}
6,4,6,,
{8}
5/3V15[8:1],2,1/3,8,3/7V51[8:1],6,7/2<8[8:1],3,2,
{8}
,3/6,4-8[8:1],5-1[8:1],4,5,,,
{8}
,1hb[16:1]/3hb[16:1],2hb[16:1]/8hb[16:1],1hb[16:1]/7hb[16:1],
{8}
6bq4[8:1]b/8b-4[8:1]b,,6b/8b,,
{8}
3v1[8:1],1>5[4:1],3h[4:1],,,,4/6,3/7,
{16}
1-5[16:1],,7,7,1>3[16:1],,6,6,1,,7h[4:1],,,,,,
{16}
8-4[16:1],8,2,2,8<6[16:1],,3,3,8,,2h[4:1],,
{8}
,,,
{16}
6bx,4bx,1bx,,3bx,5bx,8bx,,
{16}
C,E1/B1/B8/B2/B7/B4/B5,,C,E5/B4/B5/B3/B6/B1/B8,,
{4}
Ch[2:1],5w1[16:1],5,
{16}
3/7,,4/6,,5-7[16:1],,3,3,5pp8[4:1],,4,,5,,,,,,
{16}
8x,1,8,,2,2,8-2[8:1],,2-7[8:1],,7-3[8:1],,3>5[8:7],,
{1}
,E1f/B1/B8/B2/B7/B4/B5/C,
&inote_6=(150)
{1}
,
{1}
B2/B3/B6/B7/Cf,5pp8[2:1],1pp4[2:1],
{2}
3v2[8:1]/7v6[8:1],1v4[8:1]/5v8[8:1],
{4}
5-7[12:1],5/B3/B2,4-8[12:1],4/A6/B6,
{4}
5-1[12:1],5/A3/B3,4-2[12:1],4/B6/B7,
{8}
6,6,3,3,
{16}
5,5,4,4,
{32}
B4,B3,B2,B1,B8,B7,B6,B5,
{4}
4hbx[4:1]/5hbx[4:3],
{8}
,4,3,,4h[8:9],,
{16}
5,,,5,,,5,,5,,7,,6,,7,,
{16}
4b/6b,,,5,4,,5h[2:1],,3,,2,,3,,2,,
{16}
5/3,,,4,5,,4h[2:1],,6,,7,,6,,7,,
{16}
4/6,,,5,4,,5h[2:1],,3,,2,,3,,2,,
{16}
5/3,,,4,5,,4h[8:3],,6,,7,,
{16}
B8,B7,B6,B5,
{16}
2hb[4:1],,,4,3,,5,,4h[4:1],,2,,5h[4:1],,1,,
{16}
2,,,3,6,,4,,5h[4:1],,8,,4h[4:1],,7,,
{16}
6,,,4,5,,3,,6h[4:1],,2,,4h[8:1],,8,,
{16}
5/7,,,2/4,,,4/5,,
{16}
B5/E6,B1/E2,B7/E8,B3/E4,A6/D6,A3/D3,A8/D1,Chf[16:1],
{16}
,,,6x,4x,,5x,,3/4,,2,,5/6,,7,,
{16}
4/5,,,6,4,,5,,2/4,,8,,5/7,,1,,
{16}
5/4,,,3,5,,4,,7/5,,1,,4/2,,8,,
{16}
6x/7x,,,2x/3x,,,4x/5x,,
{4}
4x-8[16:1]b/5x-1[16:1]b,A4/A5/E5f,
{16}
4h[16:1]/5h[16:1],,6,5,7,4,6,5,7,4,6,5,7,4,5,2,
{32}
B8,B7,B6,B5,B4,,1,2,3,4,5h[8:1],,,,,,8w4[12:1],7,6,5,4,,,,
{4}
,
{16}
3/6,,,5,4,,3-1[12:1]/6,,4,,3/6-8[12:1],,5,,6,,
{16}
3,,,5,3,,4w8[8:1],,2/6,,4,,,,,,
{16}
4/7,,6,5,6,,3,4,3,6,4qq4[8:3]>1[4:1],5,4,,,,
{4}
6hx[4:1],
{8}
,5,5,5,2/6,,
{8}
7/1,6,5/3,2,8/1,7,6/3,
{16}
4,5,4,,
{8}
6,8/2,3V17[4:1],6,5h[4:1],,,
{16}
6,4,6,4,6,4,6,4,6,4,6,4,6pp5[8:3]<8[4:1],4,6,4,
{8}
6,,3,4,4,4,3/7,,
{8}
2/8,3,4/6,7,1/8,2,3/6,
{16}
5,4,5,,
{8}
3,1/7,6<1[6:1],3,4h[4:1],,,
{4}
3h[4:1]/Ch[4:1],,4w8[8:1],4,
{16}
2/5,,3,4,5,,4/7,,6,5,4,,1/3,,2,,
{16}
8-6[12:1],,2,2,8-4[12:1],,3,3,8,,2h[4:1],,,,8,8,
{16}
1-3[12:1],,7,,1-5[12:1],,6,6,1,,7h[4:1],,
{4}
,
{16}
,,6,5,7,,3,4,2,,8<5[4:1]pp5[8:3],1,,1,8,,
{8}
2hx[4:1],,,3,3,,
{16}
3,4,2,,
{16}
8-6[12:1],,2,2,8-4[12:1],,3,3,8,,2h[4:1],,,,7,7,
{16}
1-3[12:1],,7,,1-5[12:1],,6,6,1,,7h[4:1],,
{8}
,5,
{1}
4/5pp5[8:5]qq5[8:5]<5[8:9],,,
{32}
3/6,4h[32:31],,,,,,,
{4}
A7,A8,A1,
{32}
7,6h[32:31],,,,,,,
{4}
,,8,
{32}
2,3h[32:31],,,,,,,
{8}
,5,,,2,,
{32}
8,7h[32:31],,,,,,,
{4}
,,,
{32}
1,2h[32:23],,,,,,,
{4}
,
{32}
6,5h[32:7],,,,,,,
{4}
,
{16}
3/6,,5,4,,2,,,6,5,6,5,6,,1h[16:1],,
{16}
,,4,5,,7,,,3,4,3,4,3,,8h[16:1],,
{16}
,,5,4,,2,,,6,5,7,4,6,,1h[16:1],,
{16}
5h[4:3],,
{32}
B8,B7,E7,,,,B1,B2,E3,,,,
{32}
B3,B4,E5,,,,E7,B6,B5,,,,,,,,
{16}
6/3,,4,5,,7,,,3,4,2<7[12:1],4,3,,2,,
{16}
,,5,4,,2,,,6,5,7>2[12:1],5,6,,7,,
{16}
,,4,5,,7,,,3,4,2<7[12:1],5,3,,2,,
{4}
,,,5xw1[12:1]b,,
{8}
,
{16}
E8,E7,5hbx[8:1]/6hbx[8:1],,,
{16}
3hbx[8:1]/4hbx[8:1],,,2hbx[8:1]/7hbx[8:1],,,,
{8}
2/7,1-5[12:1]/8-4[12:1],2/7,1/8,,3/6,,
{16}
7p5[4:1],1,8,2,7,,,,
{8}
1-6[12:1],2-5[12:1],1,2,7-4[12:1],8-3[12:1],7,8,
{8}
6-1[12:1],6,3-8[12:1],3,
{4}
5v2[8:1]*v8[8:1],5>5[8:3]*<5[8:3],,
{8}
,D5/D6/A5f,,
{16}
E8,B7,,B2/E2,,A6,D6,,,B3/B4,,,B6/B7,,
{16}
A2/D3,,,A6/B6,
{4}
,1b-5[12:1],,
{8}
8,1/7,2/6,1,2/8,7,
{8}
3-5[12:1]/6,,3-1[12:1],
{16}
6,6,3,,7,7,2,,2,5,,5,4>1[16:3]>4[16:3],,
{8}
5,6,7,8,7,,
{12}
2,2,2,
{8}
1/8<5[8:1],7,1>4[8:1]/8,2,
{16}
B8,B7,B6,B5,
{8}
3-8[12:1],4-7[12:1],3,4,5-2[12:1]*-8[12:1],,5,,
{16}
7hx[4:1],B1,C,B5,
{16}
,,3,6,3,,4,,4<6[12:1],,,4,,,8>2[12:1],,,8,,,
{16}
6<8[12:1],,,6,,,2>4[12:1],,,2,,,
{8}
1/5,1/5,4/8,4/8,3/7,3/7,2/6,2/6,
{16}
1,5,1,5,1,5,1,5,
{32}
1,2,3,4,5,6,7,8,B1,B2,B3,B4,B5,B6,B7,B8,
{4}
5xw1[12:1]b/C,E5/E6/B5f,
{16}
3V15[4:1],,,6pp5[16:5]<8[16:3],,,6,,,,3,,3,,,,2,,,1/8,,,1/8,,
{8}
1-3[12:1],2,1/4-8[12:1],5,3-5[12:1]/4,2<5[4:1],3,2,
{8}
,3,4pp4[4:1],4qq4[4:1],,,,,
{4}
5x-2[12:1]*-8[12:1],E5/E6/B5f,
{16}
6V84[4:1],,,3qq4[16:5]>1[16:3],,,3,,,,6,,6,,,,7,,,8/1,,,8/1,,
{8}
8-6[12:1],7,8/5-1[12:1],4,6q5[4:1]/5,7>4[4:1],6,7,
{8}
,6,5qq5[4:1],5pp5[4:1],,,,,
{8}
,6b/8b,1b/7b,2b/8b,1b/3b,,8bw4[12:1]b,,
{8}
8b,,
{16}
3/7,,6,,4/5,,,4,5,,3,,
{16}
8-6[12:1],,2,2,8-4[12:1],,2,,8-6[12:1],,3,3,8,,2,,
{16}
1-3[12:1],8,2,7,1-5[12:1],,7,,1-3[12:1],,6,6-3[12:1],1,,,,
{16}
,,2,5,3,,7,4,6,,8,7/1,,1<6[8:1]*>4[8:1],8/2,,
{8}
,,A3/B3/C/A7/B7,,2qq3[4:1]/6h[4:1],,2,,
{16}
8-6[12:1],,2,2,8-4[12:1],,2,,8-6[12:1],,3,,8,,2,7,
{16}
1-3[12:1],,2,7,1-5[12:1],,7,,1-3[12:1],,6,,1<5[4:1]pp5[8:3]*>5[4:1]qq5[8:3],,
{16}
B6/B7,,
{4}
,,,C/B2/B7/E7/E3/B6/B3/B5/B4/E5,
