&title=ハッピーミルフィーユ
&artist=初星学園 (篠澤 広・十王星南・姫崎莉波)
&first=0.65
&des=Aza
&lv_5=13
&inote_5=(165)
{2}E3/B3/Cf/B7/E7,{8}3x/4x,2/5,,5x/6x,4/7,,{4}3pp2[4:1]/8h[4:3],,,{16}1x-5[8:1],,,8,,,7<3[4:1],,{2},
{8}2,2,1,3,4>1[8:1]/8,4/8,,6h[4:1],,8,1,2,4-7[8:1],,3x/4-1[8:1],,4x/8<5[8:1],7,1,2h[4:1],,4x,5,4/6-3[8:1],,2/6,2>5[8:1],,,7,{4}7b/8b,1>4[4:1],4<7[4:1],7>2[4:1],2x,6>3[4:1],3>8[4:1],8<5[4:1],5x,{8}1-5[8:1],1,8-4[8:1],8,2p5[8:1],2,6,6,{32}3,4bx,,,,,6,5bx,{8},4x/5x,B2,B3,B6,E6,
{8}2>5[8:1],{16},1,{8}2,8,7-4[8:1],3,7,,2-5V38[8:3],{16},1,{8}2,8,,7-4[8:1]*-3[8:1],7,,,2,1,2,3/8,4/7,,6,{1}4h[4:1]/5pp5qq4[2:1],{8}2-4[8:1],2,1-5[8:1],1,4,3,2/6,,{16}7,8,7,8,{4}7,{16}2,1,2,1,{4}2,{12}1x/8x,,1/8,2b/7b,,,6x,5x,7x,4x,8x,3x,{4}1x>3[8:1]*<7[8:1]
,1w5[8:1],1,C/B2/B3/B6/B7,
{8}3,3h[8:1],5,5h[8:1],{16}E2/B2,,D7,D6,{4}D5,{8}2,2h[8:1],4,4h[8:1],{16}E1/B1,,D5,D4,{4}D3,{8}8,8h[8:1],7,7h[8:1],{16}E6/B5,,D1,D2,{4}D3,{16}B4/B5,,B2,B7,,,E1/C,,E3/E7,,,E6/E5/E4,,,B1/B8/E1/D1,,{8}7,7h[8:1],5,5h[8:1],6h[4:1],{16}4x,3x,{4}2x,{8}5,5h[8:1],1,1h[8:1],4h[4:1],{16}8x,1x,{4}2x,{8}3/5,6,4/7-3[8:1],7,2-5[8:1],2,1,8bqq8[4:1],,4,3,2,1-4[8:1],,1x,,
{4}5h[8:1]/6h[8:1],{12}B3,B8,B2,B1,B5,B6,E4,E8,E3,{1}1x-7^8-4[2:1],{4}3/4h[4:1],{8}2,2h[8:1],5,5h[8:1],3,6,{4}4xpp3[4:1],,{16},,E1,E8,E7,E6,{8}E5,{4}2-5qq3[8:3],,,{8},4x/5x,,3,2,1,8>3[8:1],,6xp4[4:1]/8,,,,,2x,5/1-5[8:1],,,7p3[8:1],7,,,2,1-5[8:1]/5,,1b>4q5<8[4:7],,{4},,,,,Chf[2:1],,,
{8}1/2,4,1/2,8,1-5[8:1]/2,{16},8,,,{8}7h[4:1],,1,6/8,7,{4}1>4[8:1]/8<5[8:1],1x/8x,{8}2-5[8:1],2,6-2[8:1],6,{16}4X,,,3h[16:3],,,{4}1pp8[4:1],{8}7,6,5V71[4:1],,4,4,3,1x/2x,8,1/2,4,{16}5-1[8:1]/3,,,6,,,{4}7h[4:1],{8}5,4,3/5,{4}2-5[8:1]/6-1[8:1],6x/2x,{8}4/8,3,4/8,7,4>1[8:1]/8,,4/7,6h[4:1],,8x,1-7[8:1],2,{4}1-4[8:1]/3,1v7V13V57[8:7]/6,{1}1b/3h[1:1],
{8},1,2,3/8<4[4:1],,4V26[4:1],3,2h[4:1],,,7,4,3/5,6h[4:1],,5x,4<1[4:1],3,{4}4p3[4:1],,,{16}1/2pp1[4:1],,,8,,,{4}7h[4:1],{8}8,8,,{16}6pp5[4:1]/1,,,2,,,3h[4:1],,,,{8}4,4,2bV84[8:3]/5bV73[8:3],{2},{8},,4x/5x,5bqq2[8:3]/6bpp1[8:3],{4},,,4x/8x<5[8:1],{8}4/8,3x-6[8:1],,3/6,7x<1[4:1],,Cf,,,2x,3/8,4/7,{16}5h[16:3]/6,,,4h[16:3],,,3b,,
{8},{16}2x,1x,{8}3b-8[8:1],3,7-4[8:1],7,1-6[8:1],1,5-8[8:1],5,4,3,2q4[4:1],2,{4},{16}E7,B7,B8,E1,E3,B3,B4,E5,A7,E8,E1,A1,A3,E4,E5,A5,{12}D7,D8,D1,D2,D3,D4,{2}D5/Ch[4:1],
{4}1>5[4:1]/8,{8}5,6,7-2[8:1],,,3x,,2h[4:1],4,5,6<1[8:1],,3xq5[4:1]/6,,,,,7x,8-4[8:1]/4,,,2,2q6[4:1],,,7,8-4[8:1],,8b^1-7-2-6-3-5^4[4:7],,{1},,
{8}8/7,1/6x,8/7,1x/6,8-4[8:1]/7,{16},1,,,{8}2h[4:1],,8,3/1,2,{4}8<5[8:1]/1>4[8:1],8x/1x,{8}7-4[8:1],7,3-7[8:1],3,{16}5X,,,6h[16:3],,,{4}8qq1[4:1],{8}2,3,4V28[4:1],,5,5,6,8bx/7bx,2bx/5bx,8bx/7bx,2bx/5bx,{16}4bx-8[8:1]/6bx,,,3,,,{4}2h[4:1],{8}4,5,6/4,{4}7-4[8:1]/3-8[8:1],3x/7x,{8}5/1,6,5/1,2,5<8[8:1]/1,,5/2,3h[4:1],,1x,8-2[8:1],7,{4}8-5[8:1]/6,8v2V86V42[8:7]/3,{1}8b/6h[1:1],
{8},8,7,6/1>5[4:1],,5V73[4:1],6,7h[4:1],,,2,5,6/4,3h[4:1],,4x,5>8[4:1],6,{4}5q6[4:1],,,{16}8/7qq8[4:1],,,1,,,{4}2h[4:1],{8}1,1b,,{16}3qq4[4:1]/8,,,7,,,6h[4:1],,,,{8}5,5b,7bV15[8:3]/4bV26[8:3],{2},{8},,5x/4x,4bpp7[8:3]/3bqq8[8:3],{4},,,5x/1x>4[8:1],{8}5/1,6x-3[8:1],,6/3,2x>8[4:1],,Cf,,,7x,6/1,5/2,{16}4h[16:3]/3,,,5h[16:3],,,6b,,,,E3,B3,{8}B4,5hx[8:1],3h[8:1],6^7v1^2b[8:3],2V46b[4:1],
