&title=Mysterious Destiny
&artist=BAYONETTA
&first=0
&des=“灓” respect for 譜面-100號
&lv_6=14
&inote_6=(140)
{1},
{32},,,,,,,,,,,,,,1,2,3h[8:1]/7,,,,5,,,,7,,1,,5,,,,
{16}3-6[8:1],,,,3,,7h[8:1],,5>2[8:1],,,1-4[8:3],,,6<1[8:3],,,,,,,,,,,,
2,,4,,6,,7-2[8:1],,,,7,,3h[8:1],,1<6[8:1],,,5-8[8:3],,,2>5[8:3],,,,,,,,,,1-4[6:1]*-6[8:1],,,,1>4[8:1],,,,
{8}2-5[8:1],,3<6[8:1],7>2[6:1],3,,5<8[8:1],,6-1[8:1],,7>2[8:1],3<6[6:1],7,,1-5[4:1],,7,8,1<6[4:1],,3,2,1>4[4:1],,7,8,1h[4:1],,3,5,
{16}1,7,5,,
6-3[8:1],,,,6,,2h[8:1],,4<7[8:1],,,8-5[8:3],,,3>8[8:3],,,,,,,,,,5,,
7,,5,,3,,2-7[8:1],,,,2,,6h[8:1],,8>3[8:1],,,4-1[8:3],,,7<4[8:3],,,,,,,,,,1h[8:1],,8,3,,6,1,,
{8}7-4[8:1],,6>3[8:1],2<7[6:1],6,,4>1[8:1],,3-8[8:1],,2<7[8:1],6>3[6:1],2,,8-4[4:1],,8,2,2,,
{16}1-5[6:1]/7<4[6:1],,,26,,,,,8-4[6:1]/2>5[6:1],,,73,,,,,1>4[6:1]/7<4[6:1],,,26,,,,,
{8}1<6[8:1],6-3[8:1],1,,1>4[8:1],4-7[8:1],1,,
1<6[8:1],6-3[8:1],1,,1>4[8:1],4-7[8:1],1,,
1<6[8:1],6-3[8:1],1,,1-4[8:1],4-7[8:1],1,,
1-6[8:1],6-3[8:1],1,,8-5[8:1],6-3[8:1],8,6,
8>3[8:1],3-6[8:1],8,4,8<5[8:1],5-2[8:1],8,,
8>3[8:1],3-6[8:1],8,4,8<5[8:1],5-2[8:1],8,,
8>3[8:1],3-6[8:1],8,4,8-5[8:1],5-2[8:1],8,,
8-3[8:1],3-6[8:1],8,,
{16}1-4[8:1],1,5-8[8:1],5,1,,5,,
{8}3<6[8:1],6-3[8:1],7-4[8:1],,7>2[8:1],,3-8[8:1],,
3<6[8:1],6-3[8:1],7-4[8:1],,7>2[8:1],,3-8[8:1],,
3<6[8:1],6-3[8:1],7-4[8:1],,7>2[8:1],,3-8[8:1],,
3<6[8:1],6-3[8:1],7-4[8:1],,7-2[8:1]*-3[8:1],,7,,
6>3[8:1],3-6[8:1],2-5[8:1],,2<7[8:1],,6-1[8:1],,
6>3[8:1],3-6[8:1],2-5[8:1],,2<7[8:1],,6-1[8:1],,
6>3[8:1],3-6[8:1],2-5[8:1],,2<7[8:1],,6-1[8:1],,
6>3[8:1],3-6[8:1],2-5[8:1],,2<7[8:1]*-6[8:1],,2b,,
{4}3>8[8:1]/8<5[8:1],8-3[8:1],5<8[8:1]/8>3[8:1],8-5[8:1],
3>8[8:1]/8<5[8:1],8-3[8:1],5<8[8:1]/8>3[8:1],5-1[8:1],
4>1[8:1]*<7[8:1]/5,4-1[8:1],4>1[8:1]/1<6[8:1],4/1-5[8:1],
6<1[8:1]/1>4[8:1],6-2[8:1],6-1[8:1]/3-8[8:1],36,
6<1[8:1]/1>4[8:1],1-6[8:1],4>1[8:1]/1<6[8:1],1-4[8:1],
6<1[8:1]/1>4[8:1],1-6[8:1],4/1<6[8:1]*>4[8:1],1,
3>8[8:1]/8<5[8:1],8-3[8:1],5<8[8:1]/8>3[8:1],8-5[8:1],
3>8[8:1]/8<5[8:1],8-4[8:1]/3-6[8:1],3/8,8<5[4:1],
{8}5>2[4:1],3,1-5[6:1],,1<6[6:1]*>4[6:1],,,,
5<8[4:1],7,1-5[6:1],,1>4[6:1]*<6[6:1],,,,
5>2[4:1],3,1-5[6:1],,1<6[6:1]*>4[6:1],,,,
{32}1b/5b,,,,,,,,,,,,,,8,7,6h[8:1]/2,,,,4,,,,2,,8,,4,,,,
{16}6-3[8:1],,2-7[8:1],,6,,2,,4<7[8:1],,8,8-4[8:3],,,3>8[8:3],,,,,,,,,,,,
7,,5,,3,,2-7[8:1],,6-3[8:1],,2,,6,,8>3[8:1],,4,4-8[8:3],,,7<4[8:3],,,,,,,,,,8<5[6:1]*>3[8:1],,,,8-5[8:1],,,,
{8}7<4[8:1],3,6-3[8:1],2<7[6:1],6,,4-1[8:1],,3>8[8:1],7,2-7[8:1],6>3[6:1],2,,8-4[4:1],,2,1,8>3[4:1],,6,7,8<5[4:1],,2,1,8h[4:1],,6,4,
{16}8,2,4,,
{4}7/1>4[8:1],1/3<6[8:1],3/5<8[8:1]*-1[8:1],5,
2/8<5[8:1],8/6>3[8:1],6/4>1[8:1]*-8[8:1],4,
7/1-4[8:1],1/3-6[8:1],3/5<8[8:1]*-1[8:1],5,
2/8-5[8:1],8/6-3[8:1],6/4>1[8:1]*-8[8:1],4,
{8}3/5<8[8:1],4,{4}5/7>2[8:1],7/1>4[8:1]*-5[8:1],1,
6/4>1[8:1],4/2<7[8:1],2/8<5[8:1]*-4[8:1],8,
{8}3/5-8[8:1],4,{4}5/7-2[8:1],7/1>4[8:1]*-5[8:1],1,
{8}6/4-1[8:1],5,{4}4/2-7[8:1],2/8<5[8:1]*>3[8:1],8,
{16}8h[8:1],,2h[8:1],,4h[8:1],,6h[8:1],,8h[8:1],,5,7,4,6,3,,
1h[8:1],,7h[8:1],,5h[8:1],,3h[8:1],,1h[8:1],,4,2,5,3,6,,
{8}8<5[8:1],2>5[8:1],8-3[8:1],2-7[8:1],8-5[8:1],2-5[8:1],8,2,
{32}8b,7b,6b,
E
