&title=Nightmare before oversleep
&artist=佐藤直之‹
&first=-0.52
&des=NIGHTMARE
&lv_5=14
&inote_5=(190)
{4}
,,,,
{16}
2,,,,,,,,3,,,,,,,,
4,,,,,,,,5,,,,,,,,
,6qq1[8:10],,,,,,,,,,,7h[4:4],,,,
,,,,,,,,,,,,2,,3,,
4/6h[4:1],,,,,,,,3h[4:1]/4,,,,,,,,
6h[4:1]/5,,,,,,,,2h[4:1]/4,,,,,,,,
7h[4:1]/8,,,,,,,,2h[4:1]/1,,,,,,,,
3h[4:1]/4pp8[4:3],,,,,,,,3,,,,2,,,,
1>5[8:4],,,,,,,,6,,,,7,,,,
8h[4:1],,,,6,,,,2h[4:1],,,,4,,,,
3h[4:1]/5h[4:1],,,,,,,,1b/8b,,,,,,,,
24,,4,,3,,5,,35,,4,,5,,6,,
64,,5,,6,,4,,73,,3,,5,,2,,
35,,6,,4,,5,,26,,7,,1,,8,,
27,,2,,6,,4,,53,,5,,42,,2,,
46,,6,,4,,5,,35,,3,,6,,6,,
17,,1,,8,,8,,46,,6,,4-8[8:8],,7,,
4h[4:3],,,,,,,,,,,,,,,,
3>5[4:2],,,,,,,,,,,,,,,,
1>4[8:1]/8,,,,6,,7-4[8:1],,,,2,,1,,1,2,
3h[8:1],,6-2[8:1],,,,36,,4-8[8:1],,,,7,,,,
6>3[8:1]/1,,,,2,,1-5[8:1],,,,7,,8,,8,7,
6h[8:1],,4-8[8:1],,,,14,,2,,3,,7,6,5,4,
3>8[8:1],,,,8,,,,6<1[8:1],,,,1,,,,
4p8[8:1],,,,8,,,,5q1[8:1],,,,1,,,,
3<6[8:1],,8,,3,,7-1[8:1],,2,,7,,2-5[8:1],,8,,
2,,6-2[8:1],,4,,6,,3,,3h[4:1],,1,8,7,6,
2-6[8:1],,5-8[8:1],,2,,5,,,,1,,1,,7,6,
5h[8:1],,3,,21,,8,,7<4[8:1],,7,,3,,2,,
1-5[8:1],,4-7[8:1],,1,,4,,,,2,,2,,6,5,
4h[8:1],,2,,18,,7v4[16:2]*v2[16:2],,6,,,,,,,,
3-7[8:1],,8-5[8:1],,3,,8,,,,2,,2,,8,7,
6-2[8:1],,2,,3,,4,,5-1[8:1],,5,,7,,7,,
8-2[8:1],,3,,8,,4-8[8:1],,7,,4,,6>4[8:1],,1,,
6,,1,,1x,2,3,4,8x,1,2,3,7x,8,1,2,
5-1[8:1],,3>8[8:1],,5,,3,,7,,6,,1,,2,3,
45,,6,,7-4[8:1],,7,,1q5[8:1],,1,,7,,8,,
7<4[8:1],,3-8[8:1],,7,,3,,7,,6,,1,,2,3,
45,,6,,7-3[8:1],,3-7[8:1],,7,,,,,,,,
8-4[8:1],,2>5[8:1],,8,,2,,7,,6,,1,,2,3,
5-7[8:1]/4,,6,,4-8[8:1],,3,,7x-3[8:1],,7x,,2x,,2x,,
1-5[8:1],,7,,1,,6<1[8:1],,2,,6,,3-5[8:1],,7,,
3,,7,,8x,7,6,5,1x,8,7,6,2x,1,8,7,
2b/6b`B2`Cf`B6,,,,,,,,,,,,
34,,,,5,,4,,6,,,,
56,,,,3,,4,,2,,,,
7qq4[2:1],,,,1,,,,2,,,,
3-1[8:1],,,,3/6-8[8:1],,,,4,,,,
2pp5[2:1],,,,6,,6,,7,,7,,
8<5[8:1],,,,8>3[8:1],,,,8,,,,
7,,7,,6,,6h[4:1],,1,2,3,4,
8/5,,8,,7,,7h[4:1],,8,1,2,3,
4/7,,7,,2,,2h[4:1],,1,8,7,6,
8,7,6,5,7,6,5,4,8,7,6,5,
4-8[8:1],,,,4/7-3[8:1],,,,7/2-6[8:1],,,,
2/5pp8[8:3],,,,1,,2,,3,,4,,
4b,3,2,1,8,,4b,3,2,1,8,,
4b,3,2,1,8,7,6,5,4,3,2,,
8b,7,6,5,4,,8b,7,6,5,4,,
8b,7,6,5,4,3,2,1,8,7,6,,
{24}
7hx[4:1]/8bx,1,2,3,4,5,,,,7hx[4:1]/8bx,1,2,3,4,5,,,,
8hx[4:1]/1bx,2,3,4,5,6,,,,8hx[4:1]/1bx,2,3,4,5,6,,,,
1hx[4:1]/2bx,3,4,5,6,7,,,,1hx[4:1]/2bx,3,4,5,6,7,,,,
8bx,7,6,5,4,3,8bx,7,6,5,4,3,
{16}
2b-6[8:1]/7b-3[8:1],,,,2xqq5[1:1]b/7xpp4[1:1]b`B2/B7/Cf/B3/B6,,,,,,,,
,,,,,,,,,,,,
,,,,
1-5[8:1],,,,1/7>2[8:1],,,,7-3[8:1]/4-6[8:1],,,,4-8[8:1],,,,
4b/7b,,,,6,,5,,24,,{24}3,7,3,{16}8,,2,,
8-4[8:1],,,,2-6[8:1]/8-6[8:1],,,,28,,,,2,,2,,
1v6[8:1],,6,,5,,4h[4:1],,7,8,1,2,5,6,7,8,
{24}
2x,3,4,7x,6,5,{16}1x,,1x,,5,3,6,4,7,5,8,4,
{24}
7x,6,5,2x,3,4,{16}8x,,8x,,4,6,3,5,2,4,1,5,
2<7[8:1],,1,,6-2[8:1],,5,,4-1[8:1]*-7[8:1],,4,,4,,,,
8-5[8:1],,,,8-2[8:1]/3-7[8:1],,2,,3<6[8:1],,,,8-4[8:1]/3-8[8:1],,,,
8b/3b,,,,3,,2,,15,,{24}6,8,7,{16}8,,2,,
4-1[8:1]/7,,,,8-3[8:1]/4-6[8:1],,7,,48,,,,4,,7,,
8v3[8:1],,3,,4,,5h[4:1],,2,1,8,7,4,3,2,1,
{24}7x,6,5,8x,7,6,{16}1x,,1x,,3,7,2,6,1,5,8,4,
{24}2x,3,4,1x,2,3,{16}8x,,8x,,7,1,6,2,7,3,8,4,
57,,7,,7,,24,,2,,4,2,5,3,6,4,
7b,6,5,4,8,7,6,5,1,8,7,6,2,1,8,7,
4b,5,6,7,3,4,5,6,2,3,4,5,1,2,3,4,
7b,5,7,5,8,3,8,3,7,4,6,2,4,3,7,1,
5b,4,3,2,6,5,4,3,7,6,5,4,8,7,6,5,
{24}1x,8x,7x,6x,5x,4x,8x,1x,2x,3x,4x,5x,8x,1x,2x,3x,4x,5x,1x,8x,7x,6x,5x,4x,
{16}
7b,2,6,1,5,2,6,4,8x,7,6,5,2x/4x,5,6,7,
3b,1,4,7,2,5,8,6,1x,2,3,4,7x/5x,4,3,2,
7b,1,7,1,7,8,7,6,7,5,7,4,7,3,7,2,
{24}
8bx,7,6,5x,4,3,7x,6,5,4x,3,2,7bx,6,5,8bx,7,6,2bx,3,4,1bx<3[8:5],2,3,
,,,,,,,,,,,,,,,,,,,,,,,,
{16}
2qq5[4:9]/7pp4[4:9],,,,,,,,,,,,,,,,,,,,,,,,,,,,,,,,,,,,,,,,,,,,,,,,
7pp4[4:9]/2qq5[4:9],,,,,,,,,,,,,,,,,,,,,,,,,,,,,,,,,,,,,,,,,,,,,,,,
