&title=BABYLON
&artist=SHIKI
&first=0
&des=Tiamat
&lv_5=14+
&inote_5=(190)
{2},2h[8:27],,,
{8},6h[8:14],,,
{2},,,
{32}3<2[8:15]/7,48,15,,
{8},1,1,8,8,,8,,4,,5,,6,,
{8}2,2qq4[8:12],,4,5,6,7,,6,,7,6,5,,5,6b,7,
{32}3/7<8[8:15],26,15,,
{8},1,1,2,2,,2,,1,,5,,4,,
{8}8,8^6[8:4],,5,4,3,2,,1,
{8}2-6[8:1]/7,3,2/8,7,
{32}1h[8:1]/7,6,5,4,,,,,7h[8:1]/1,2,3,4,,,,,
{8}8-5[8:1],,8-3[8:1],2,8,6-3[8:1],,1-4[8:1]/6,,1-6[8:1]/7,,1-4[8:1]/3,,17,,
{8}8,7-4[8:1],,4q6[8:3],3,2,1,,8>4[4:1],,7,6,5,,5,6,7,
{8}1-4[8:1],,1-6[8:1],7,1,3-6[8:1],,8-5[8:1]/3,,8-3[8:1]/2,,8-5[8:1]/6,,28,,
{8}1,2-5[8:1],,5p3[8:3],6,7,8,,1<5[4:1],,2,3,4,4,3,2,1,
{8}5-8[8:1],,5-2[8:1],3,5,7-2[8:1],,4-1[8:1]/7,,4-7[8:1]/6,,4-1[8:1]/2,,46,,
{8}6,7,,8p4[8:1],2V46[8:1],8,2,,1<5[4:1],,4,3,2,,2,3,4,
{8}4-1[8:1],,4-7[8:1],6,4,2-7[8:1],,5-8[8:1]/2,,5-2[8:1]/3,,5-8[8:1]/7,,35,,
{8}3,2,,1q5[8:1],7V53[8:1],1,7,,2,,36,27,18,
{32}2/8,7,6,5,,,,,7/1,2,3,4,,,,,48,37,26,1/5<4[8:11],,,,,
{8},,,,3,3,3,,4,4,,5,,,4>5[8:12]/5,,,,,,6,6,6,,5,5,,4,4,,
{16}3>6[4:5],4,,,
{8},,,3,,3,4,,,,4h[8:4],,,,
{16}6<3[4:5],5,,,
{8},,,5,,6,7b,,,,8h[8:4],,,,
{8}4h[8:4],,6,7-5[8:1],,7-1[8:1]/4h[8:2],,7,3h[8:4],,7,8-2[8:1],,8-6[8:1]/3h[8:2],,8,2h[8:4],,7,6-8[8:1],,6-4[8:1]/2h[8:2],,6,1h[8:4],,6,5-7[8:1],,5,1,,
{8}5h[8:4],,1,2-4[8:1],,2-8[8:1]/5h[8:2],,2,6h[8:4],,2,1-7[8:1],,1-3[8:1]/6h[8:2],,1,7h[8:4],,2,3-1[8:1],,3-5[8:1]/7h[8:2],,3,
{16}6,7,18,2,3,4,6,7,18,2,3,4,7,8,12,3,
{16}6,5,7,4,5,3,6,2,5,4,6,3,4,2,5,1,4h[8:1],,3h[8:1],,2h[8:1],,1h[8:1],,8,,7,,6,,5,,
{16}3,4,2,5,4,6,3,7,2h[16:3],,,8h[16:3],,,6h[16:2],,
{8}1,1,28,28,37,37,46,46,
{16}7,4,6,5,6,3,5,4,5,2,4,3,4,1,3,2,
{8}4,4h[4:1],2,2h[4:1],8,8h[4:1],6,6h[4:1],
{16}7,1,8,2,1,3,4,2,5,3,6,4,5h[4:1],,,,
{16}2,5,3,4,3,6,4,5,4,7,5,6,
{32}4,3,2,1,8,7,6,5,
{8}4h[2:1],2,1,8,7h[2:1],5,4,3,
{8}2^5[4:1],6,7,8,1^6[4:1],4,3,2,
{8}1h[2:1],3,4,5,6h[2:1],8,1,2,
{8}3^8[4:1],7,6,5,4^7[8:1],1,2,3,
{8}4-1[8:1],5,6,7-4[8:1],8,1,2-7[8:1],3,4^6[8:1],3,2,1^3[8:1],8,7,6^1[8:1],5,4h[8:3]/6,,,2h[8:4],,3,4,5,
{8}62,26,15,15,48,48,37,37,
{32}2/6,37,48,1p7[1:3]/5p3[1:3],,,,,
{4},,,,,,,,,,,,,,,
{8}5/6h[2:1],,,7,7,,,,
{8}4/3h[2:1],,,2,2,,,,
{8}4/5h[2:1],,,6,6,,,,
{4}3-5[8:1],3/6-2[8:1],6/1-7[8:1],1/5w1[8:15],,,,,,,,,
{16}4,6,4,6,3,7,3,7,2,8,2,8,1,1,1,1,
{32}1-5[8:1],28,37,46,,,,,
{8}1/6-4[8:1],,6/4-8[8:1],3,,,
{8}2v5[4:1],6,2/5V38[4:1],6,7-3[8:1],6,7,,
{8}1-5[8:1],,1/8-4[8:1],,8/4^7[8:1],3,,,
{16}2,3,4,5,8,7,6,5,1,2,3,4,2,3,4,5,
{16}1,2,3,4,7,6,5,4,8,7,6,5,7,6,5,4,
{16}1,2,3,4,5/8,7,6,5,4/2,3,4,5,6/1,8,7,6,
{8}5v2[4:1],,5/2V47[4:1],3,1-5[8:1],1,,8h[8:1],,7h[8:1]/3,,6h[8:1]/2,,5h[8:1]/1,,,
{16}4,6,,4,2,,4,,6,5,,6,7,,6,,3,4,,3,2,,3,,7,6,,7,8,,7,,
{16}5,,,,
{16}3,2,18,7,6,5,3,2,1,78,6,5,
{16}3,4,2,1,4,5,2,7,5,6,8,7,4,5,2,7,
{8}3v8[4:1],,8V25[4:1]/3,7,,7-4[8:1],,3-8[8:1]/7,,5-1[8:1]/3,6,4^1[8:1]/5,3,8^5[8:1]/4,7,28,
{8}3h[2:1],4,5,6,
{8}7h[2:1],8,1,2,
{16}1,4,3,4,3,4,3,4,2,5,4,5,4,5,4,,
{16}8,5,6,5,6,5,6,5,7,4,5,4,5,4,5,,
{24}2,3,4,7,6,5,2,3,4,7,6,5,1,2,3,8,7,6,1,2,3,8,7,6,
{32}3/5,2,1,8,7,6,5,4,3b/8b,,,,38,,,,6/4,7,8,1,2,3,4,5,6b/1b,,,,16,,,,
{32}2/8,,,,2b/8b,3,4,5,1/7,,,,1b/7b,6,5,4,
{32}2,3,4,5,6,7,8,1,2/5,4,3,2,1,2-6[1:3]/8-4[1:3],37,46,5b,
