&title=ハルトキ ~Spring Moment~
&artist=米倉千尋
&first=-1
&des=GAHOU
&lv_5=13
&inote_5=(155)
{1},
{8}3h[4:1]/4h[4:1],,,1-4[4:1]/5,,6,,,
{8}6h[4:1]/5h[4:1],,,8-5[4:1]/4,,3,,,
{8}2h[4:1]/4h[4:1],,,4-1[4:1]/5,,6,,,
{8}7h[4:1]/5h[4:1],,,5-8[4:1]/4,,3,,,
{16}7/1,2,3,4,5/7,,7,,3/4,,3,,2/1,,2h[8:1],,
{16}8,7,6,5,4/2,,2,,6/5,,6,,7/8,,7h[8:1],,
{16}5,4,3,2,1/6,,6,,8/3,,3,,4/2,,2h[8:1],,
{16}4,5,6,7,8/3,,8h[8:1],,2,4,3,,5/4,,6,5,
{16}8,7,6,5,4/3,,2,,7-3[8:1]/5,,8,,7/3,,2,,
{16}5/1,2,3,4,5/6,,7,,2-6[8:1]/4,,1,,2/6,,7,,
{16}8/5,4,3,2,1/6,,6,,8-4[8:1]/7,,2,,8/3,,2h[8:1],,
{16}4,5,6,7,8/3,,1/2h[8:1],,7,4,6,5,8,1,6,3,
{16}8h[16:3],,,,,,6q3[4:1]/2,,,,,,,,,,
{16}1h[16:3],,,,,,2q7[4:1]/5,,,,,,,,,,
{16}8h[16:3],,,,,,4/6pp8[4:1],,,,,,,,,,
{16}3h[16:3],,,,,,4/2pp4[4:1],,,,,,,,,,
{16}7h[16:3],,,6h[16:3],,,5<8[16:3],,,,1h[4:1],,,,,,
{16}2h[16:3],,,3h[16:3],,,4>1[16:3],,,,8h[4:1],,,,,,
{16}7h[16:3],,,1h[16:3],,,4z8[4:1],,,,2h[4:1],,,,,,
{16}7,3,5,1q3[16:7],5q7[8:3],,1b,,,,,,,,,,
{16}8<5[8:1],,,,3,,,,2,4,,4,2,,5/1,,
{16}1>4[8:1],,,,6,,,,7,5,,5,7,,8/4,,
{16}8-4[8:1],,,,3,,,,2,4,,4,2,,5/1,,
{16}1s5[16:3],,,,6,,,,7s3[16:3],7,,,2,,,,
{16}4>1[8:1],,,,8,,,,7,8,,8,7,,6/1,,
{16}5<8[8:1],,,,1,,,,2,1,,1,2,,8,1,
{16}7b/2,,,4,5,,6/3b,,,2,1,,8/3b,,,6,
{16}5,,8b/4,,,3,7,,5q1[8:1]/1q5[8:1],,,,1<2[8:6]/5,,,,
{16}3h[8:3],,,,,,,,,,,,1p3[4:3],,,,
{16}7h[8:3],,,,,,,,,,,,5<3[4:3],,,,
{16}4h[8:3],,,,,,,,,,,,4p6[8:4],,,,
{16}8h[8:3],,,,,,,,,,7/5-1[8:1],,,,,,
{16}6h[8:1],,,,6h[8:1],,,,5h[8:1]/3h[8:1],,,,5h[8:1]/3h[8:1],,,,
{16}4h[8:1]/2h[8:1],,,,4h[8:1]/2h[8:1],,,,8h[8:1]/2h[8:1],,,,8h[8:1]/2h[8:1],,,,
{16}7/1,,1,7,2,6,3,5,4,5,3,6,2,7,1,8<1[16:9],
{16},,,,,,,,,,,,,,2,,
{32}8V24[16:3],7,6,5,,,,,{16}8<5[8:1],,6,,8-4[8:1],,,3,8>3[8:1],,1,,
{16}8/5-1[8:1],,,6,5,,8<5[8:1],,3>8[8:1],,,,,,6,,
{32}1V75[16:3],2,3,4,,,,,{16}1>4[8:1],,3,,1-5[8:1],,,7,1<6[8:1],,8,,
{16}1/4-8[8:1],,,2,4qq2[8:1],,3,,4pp6[8:1]/6,,,,,,,,
{32}4V68[16:3],3,2,1,,,,,{16}4-2[8:1],,3,,4-1[8:1],,,6,4<7[8:1],,5,,
{16}4/8-4[8:1],,,1,8,,2q6[8:1],,6q2[8:1],,,,,,7,,
{16}4>1[8:1],,,8,4,,7,,5<8[8:1],,,1,5,,2,,
{16}1/2,,3,1,2,1,3,,8/1,,7,8,6,8,7,8,
{8}6-1[8:1],5,6/2-6[8:1],3,8<5[8:1]/2,7,8/4-1[8:1],3,
{8}7-3[8:1]/4,6,2>5[8:1]/7,1,8-4[8:1]/2,7,8-6[8:1]/3,{16}2,2,
{8}8-5[8:1],3,8/2-6[8:1],1,7-1[8:1]/2,8,7/3-5[16:1],4,
{16}7/3,,6,5,7,5,6,5,7h[8:1],,3,4,2-6[8:1],4,3,4,
{16}2b,,,,8,4,7,3,6,2,5,1,4,8,4qq4[8:5],8,
{1}4bpp4[8:4],
{16}6h[4:1]/5,4,3,2,1-5[8:1],,1,,7-3[8:1],,7,,2,,2,,
{16}3h[4:1]/4,5,6,7,8-4[8:1],,8,,2-6[8:1],,2,,7,,7,,
{16}6h[4:1]/5,4,3,2,1-5[8:1],,1,,7<4[8:1],,7,,2,,2,,
{16}3h[4:1]/4,5,6,7,8,,1/2-6[8:1],,3,8,2,,7h[8:1],,3,5,
{16}1,2,3,4,5-1[8:1]/7,,5,,6-2[8:1],,6,,4>1[8:1],,4,,
{16}8,7,6,5,4-8[8:1],,4,,3-7[8:1],,3,,5<8[8:1],,5,,
{16}1,2,3,4,5-1[8:1],,5,,6-2[8:1],,6,,4>1[8:1],,4,,
{16}8,7,6,5,4,,4/1,,2,5,3,8,5,6,2qq5[8:7],4<4[16:13],
{1},
{32},,,,,,,,4/8,3/7,2/6,1/5,8-4[8:1]/4-8[8:1],,,,,,,,{8}8/4,,6bqq3[8:15]/2bqq7[8:15],
{1},,,
