&title=Chrome VOX
&artist=t+pazolite
&first=-0.05
&lv_5=14+
&des_5=Chrome CAT
&inote_5=
(205){4},{8},,,,,,,1/2,
1/2,{16}2,3,{8}4,{16}8,1,8,1,{8}8,
2b,8/7,8/7,{16}7,6,{8}5,2,8b,8b,
8b,5/4,4,{16}3,4,{8}2,{16}6,5,{8}7,{16}3,4,
{8}2,5/4,5/4,{16}3,6,2,7,{8}1-5[8:1],,8b,
,7/4,3,{16}2,1,{8}2,{16}7-3[8:1],3,7,3,{8}7b,
,5/2,6/1,{16}8,7,8,7,{8}8-4[8:1],6,5b,
,7/2,7/2,{16}2,7,{8}1,{16}8,2,7,3,6,4,
5,3,{8}8s4[8:5],,3,,2-6b[8:1],,2b,
,1x,1/2,{16}1/2,8/3,{8}7/4,1/2,1/2,{16}1/2,8/3,
{8}7/4,2-5[8:1],1,7-4b[8:1],8,1w5[8:1],,1b,
,5x/4x,5/4,{16}5/4,6/3,{8}7/2,{32}E3,B3,B4,E5,E7,B6,B5,E5,{8}Cf,
,4b-8[8:1],,4b<7b[8:1]*>1b[8:1],,4w8[8:1],,{16}4b,Cf,
{8},{16}1x,2x,7,6,2,3,6,5,{8}3-7[8:1],,5b,
,2-5b[8:1],1,2/7-4[8:1],8,7/1w5b[8:1],,1b,
,8/1,8/1,{32}1-5[8:1],2,3,4,5,7,6,5,{8}4/1bw5b[8:1],,1b,
,{16}4x,3x,6,7,3,2,7,8,{8}1s5b[8:1],,8/1,
,7/8,7/8,{16}7/8,6/1,{8}5/2,7/8,7/8,{16}7/8,6/1,
{8}5/2,8/1-5[8:1],2,1/8-4b[8:1],7,8/1w5[8:1],,1b,
,7/2,7/2,{16}2,7,1,8,{32}2,3,4,5,7,6,5,4,{8}1b,
,7b/2b-6[8:1],,2b/7bv4b[8:1],,7b/2w6[8:1],{16},,,Cf,
{8},{16}1,8,2,7,3,6,4,5,{8}Cfh[4:1]/1bw5b[8:1],,,,{32}1,
2,{16}3,{32}5,6,{16}7,{32}2,3,{16}4,{32}6,7,{16}8,{8}2w6[8:1],,2b,
,4b/3b,4/2,6/5,7/5,{16}1,8,1,8,1,8,
1,8,{8}1-7[8:1],,1b/2-6[8:1],,2b/3-5[8:1],,3b/7b,
,E2/B1/B8/E8/B7/B6/E6/B5/B4/E4,,,,E8/C/E2/E5,,,,E8/B8/B1/E2/C/E5,
,,,E8/B7/B6/B5/B4/B3/B2/E2,,,,E2/B1/B8/C/B3/B4/B5/E6/B7,
,,,E8/B7/B6/E6/E2/B2/B3/E4,,,,E8/B7/B6/E6/C/E4/B3/B2/E2/B8/B4,
,,,E8/B7/B6/E6/C/E4/E2,,,,7b/6b,
,,,2b/3b,,,,1/B5,
,2/B6,,3/B7,,4/B8,
,8-2[8:1]/7-3[8:1],,,,3x-7[8:1]/4-6[8:1],,,,5/4,
,8-4[8:1]/2-5[8:1],,{16}8b/2b,Cf,{8},,,2bh[4:1]/B1,
,B8,,3h[4:1]/B7,,B6,
,3/A5,,3/A6,,4/A7,,4/A8,
,7bh[4:1]/B8,,B1,,6h[4:1]/B2,,B3,
,6/A4,,6/A3,,5/A2,,5/A1,
,5/3,2,1/8,7,6/4,3,2/8,
7,6/3,6/3,2/7,1,8,1,1-5[16:17],
,{16}2,5,4,7,3,6,1,8,2,5,4,7,3,6,
1,8,{8}1b>4[8:1],,1<6b[8:1],,1w5[8:1],,1b,
,{16}6x/5x,4,{8}3,{16}1,1,2,2,{8}1,2-4[8:1]*-5[8:1],2,
{4}2-8[8:1]*-7[8:1],2-6b[8:1],{8}2,7b,,5b/3b,
,{16}3x/4x,5,{8}6,{16}8,8,7,7,{8}8,7-5[8:1]*-4[8:1],7,
{4}7-1[8:1]*-2[8:1],7-3b[8:1],{8}7,2b,1,8,
7,{16}7x/8x,1,{8}2,{16}4,4,3,3,{8}4,3-1[8:1]*-8[8:1],3,
{4}3-5[8:1]*-6[8:1],3-7b[8:1],{8}3,6b,,6/3,
,{16}4,3,{8}2h[8:1],{16}6,7,{8}8h[8:1],{16}1,8,1,8,1,8,
1,8,{8}8b-4b[8:1]/1b-3b[8:1],,8b-6b[8:1]/1b-5b[8:1],,8b-4b[8:1]/1b-3b[8:1],,8b/1b,
,{16}6/5,7/4,{8}8/3,{16}2,3,1,8,{8}2,2,1,
{4}1-5[8:1]/2-4[8:1],1-7[8:1]/2-6[8:1],{8}1/2,A7f/A6f,,8b/2b,
,{16}4/5,3/6,{8}2/7,{16}1,8,1,8,{8}1,1,2s6[8:1]/8z4[8:1],
7/3,8b/2b,,{16}2,7,1,8,{8}2-6[8:1],7,5/2b,
,{16}4/3,5/2,{8}6/1,8,7,{16}7/8,6/1,{8}5/2,3,
4,{16}6/5,7/4,{8}8/3,2,2,1,8,7b/2b,
,{16}2,5,4,7,3,6,1,8,{24}3,2,1,8,7,6,3,2,1,
8,7,6,1q4[4:3],{12},,,,,,,,,,,,,{8}E8,
B8,B1,E2,,B6,
{4}B3,E5,{8}E7,E3,,Ch[8:3],
{4},{8}E6,B5,B4,E4,,B7,
{4}B2,Ch[4:1],{8}E8/B8,B6,B4/E4,B2,
{4},{8}E7,B6,E3,B3,,B8,
{4}B1,E6,{8}E5,E4,,Ch[8:3],
{4},{8}E8,B8,B1,E4,B4,B5,
{4}1h[4:1],8h[4:1],{8}1h[8:1],8h[4:1],,1b,
,2/7-4[8:1],,8/7,{4},{8}6/5,7/4,
,7/2-5[8:1],,1/2,{4},{8}4/3,5/2,
,8-4[8:1]/2-5[8:1],,8/2,{4},{8}6/5,7/4,
,7-4[8:1]/1-5[8:1],,7/1,,3,1,8,
{4}6,{8}2v5[8:1],7-4[8:1],2,7,,3,
{4}2<7[8:1],2,{8}6,5,4,3,
{4},{8}2>5[8:1],6<1[8:1],2,6,,6/3,
{4}6/3,{8}2,8h[2:1],{2}1h[8:3],
{8},3b/6b,,3,4h[4:1],3,,3/6h[4:1],
,3,,6,5h[4:1],6,,6/3h[4:1],
,6,,3,4h[4:1],3,,3/6h[4:1],
,3,,6,3,7,2,8h[8:17],
,1,1,1,1,1,1,1,
1,1,1,1,1,1,1,1,
1,{16}1,8,1,8,1,8,1,8,{32}1,2,3,4,5,6,7,8,1,2,3,4,
5,6,7,8,{8}1h[8:5],B7,B5,Cfh[4:1],{4},{8}7b/2b,
,1/2,{16}1/2,{32}8,7,6,5,{16},{8}3h[8:1],4,{16}2h[16:1],3,,1h[16:1],
{8}2,8/7,{16}8/7,{32}1,2,3,4,{16},{8}6h[8:1],5,{16}7h[16:1],6,,8h[16:1],
{8}7-5[8:1],3,7b-1b[8:1],3,7b-5[8:1],3,7b-1b[8:1],3,
7b,3,{32}7b,6,{16}5,{8}3,{32}7b,8,{16}1,{32}3,4,5,6,7,8,1,2,{8}3b/6b,
,8/7,{16}8/7,{32}1,2,3,4,{16},{8}6h[8:1],5,{16}7h[16:1],6,,8h[16:1],
{8}7,1/2,{16}1/2,{32}8,7,6,5,{16},{8}3h[8:1],4,{16}2h[16:1],3,,1h[16:1],
{8}2-4[8:1],6,2b-8b[8:1],6,2b-4[8:1],6,2b-8b[8:1],6,
2b,6,{32}2b,3,{16}4,{8}6,{32}2b,1,{16}8,{24}6,5,4,2,1,8,4,3,2,
7,6,5,3x/4x,{12},{16}3/4,2/5,{8}1/6,8h[8:1],7,{16}1h[16:1],8,,2h[16:1],
{8}1,6/5,{16}6/5,7/4,{8}8/3,1h[8:1],2,{16}8h[16:1],1,,7h[16:1],
{8}8-4[8:1],3,8b-6b[8:1],5,8b-4[8:1],3,8b-6b[8:1],5,
8b,3,4/3,{48}2b,1,8,7,{24},{8}5,5/2,7/4,1/6,
8/3,4-6[8:1],3-7b[8:1],4,3,8-2b[8:1],7x-3[8:1],8,
7,1-3[8:1],8-4b[8:1],1-5[8:1],8-6b[8:1],1-3[8:1],8-4b[8:1],1,
8,{16}3x,5x,4x,6x,2,5,4,7,2,5,4,7,3,8,
1,6,{8}4w8[4:1],{2},{8}6b/2b,8b/4b,
{4},{8}2-7b[8:1],6-3b[8:1],2,6,,6-4b[8:1]/1>3[8:1],
6/1,6<8b[8:1]/1-5[8:1],,6/1,,2x-6[8:1],8x-4b[8:1],2bx,
8bx,5x-3[8:1],5x-7[8:1],5x-1b[8:1],5,5,,2,
1,8-4[8:1],7,6,5-1[8:1],4x,3x-7b[8:1],2x,
{4}5x,{8}5xV74b[4:1],3x-8[8:1],5,3,,1x-3[8:1]/8x-3b[8:1],
8x/1x,8bx-6b[8:1]/1bx-6[8:1],,8bx/1bx,,4x-7[8:1]/3x-8b[8:1],5/2,3bx/4bx,
,8x/1x,2b-5[8:1],1,2b,7b-4b[8:1],8,7b,
1,1-3b[8:1]*-4[8:1],,1b-6[8:1]*-7b[8:1],,1bw5b[8:1],,1b,
,7/2-6[8:1],2,2b/7b-3b[8:1],7,7b/1-5[8:1],1,1b/7b,
8,2-5[8:1],7-4b[8:1],2,7,1-5[8:1],8-4b[8:1],1,
8,1>3[8:1],{16}6b,5,{8}4/1-7b[8:1],{16}6b,5,{8}4/1>3[8:1],{16}6b,5,{8}4/1b,
4,4-8[8:1],5-7b[8:1],4-2[8:1],5-1b[8:1],4-8[8:1],5-7b[8:1],4,
5,4,2/8,5,7/1,4/3,2/8,6/5,
7/1,7/5,2/4,8/6,1/3,8/7,6/5,4/3,
1/2,{24}4,5,4,5,4,5,3,6,3,6,3,6,2,7,2,7,2,7,1,8,1,
8,1,8,{96}4,{48},{96}3,{48},{16}2,{32}7,6,{16}5,{32}2,1,{16}8,{32}6,5,{16}4,{32}7b/3b,4,5,6,7,8,1,2,3b/7b,6,5,4,
3,2,1,8,{8}7b-4b[9.0732##0.1463]/3b-8[9.0732##0.1463],{1},,,,,,,{4},,{8},{16}7b/3b,
Cf,
E
