&title=カフェインファイター
&artist=シャロ (CV: 内田真礼)
&first=0
&des=Amaoto
&lv_5=13
&inote_5=(156){8},,,,,,,,
{8}5h[1:1],,B7,,,,B3,,4h[1:1],,B2,,,,B6,,
{8}6h[1:1],,B8,,,,B4,,3h[2:1],,B1,,,,B7/B6/B3/B4,,
{8}5pp1[2:1],,,2,,3,,4,4z8[8:3],,,7,,6,,5,
{8}4b/B1/B2/E2,,,,5b/B8/B7/E8,,,,,5b/4b,3b/6b,2b/7b,1b/8b,,,7V51[4:1],
{8},7,2-4[8:1],,8h[8:2],,,2V84[4:1],,2,5-7[8:1],,2,B3/B4,B3/B4,8V26[4:1],
{8},8,3-5[8:1],,7h[8:2],,,4V26[4:1],,4,5w1[8:1],,5x,,,2-6[8:1],
{8},2,1,,7/8h[4:1],,,7-3[8:1],,7,8,,2/1h[4:1],,2-6[8:1],,
{8}2qq5[8:3]/7-4[8:1],,7/2,,5,6,7,4b/8b,,2b/6b,5bq1[16:3]/1bq5[16:3],,,,,,
{8}8v5[8:1]/2v5[8:1],,2/8,,6-4[8:1]/3-7[8:1],,6/3,,1bx-5b[8:1],7bx-3b[8:1],1bx,7bx,,4,3,2,
{8}1,5,3,3,7,4,6,6,3,4,6,5/4,,8-4[8:1]/7-5[8:1],,8/7,
{8},3-1[8:1]/4-8[8:1],,3/4,,1-5[8:1]/2-4[8:1],,2/1,,6-8[8:1]/5-1[8:1],,5/6,,2,3,4,
{8}5v2[16:3],6,7,8,1<5[4:1],2,3,4qq5[2:1],,6,,7,,{16}8,7,{8}6,4,
{8}6h[8:1],3,6h[8:1],4,6h[8:1],5,6h[8:1],7h[2:1],,6,,5,,7/5,6,4,
{8}3h[8:1],6,3h[8:1],5,3h[8:1],4,3h[8:1],2,3h[8:1],1,3h[8:1],8,,1-6[8:1]/2-5[8:1],3/8,2/1,
{8},6-8[8:1]/5-1[8:1],,6/5,,8-3[8:1]/7-4[8:1],6/1,7/8,,3-1[8:1]/4-8[8:1],,4/3,,7,6,5,
{8}4v7[16:3],3,2,1,8>4[4:1],7,6,5V71-6[2:1],,4,,3,3,,4>6[1:1],,
{8}Cf,,,5,5,,6<3[4:3],5,,4,,6,6,,8<2[1:1],,
{8}C,,,1,1,,2>7[4:3],1,,8,,2,2,,3,,
{8}7,7,8,8,1,1,2,2,3<6[4:1],,6<1[4:1],,1>4[4:1],,4qq4[2:1]*pp4[2:1],,
{8}B4f,,,,,3/5,2/6,1h[4:1]/7pp6[2:1],,,2,,3,,4<3[1:1],,
{8}6,,,4,4,,3qq6[4:3],4,,5,,7,7,,8>7[1:1],,
{8}2,,,8,8,,7qq2[4:3],8,,1,,3,3,,4,,
{8}8<5[16:3],8,2,3,4>1[16:3],4,8,7,6-3[8:1],2-7[8:1],6b,2b,,5,6,7,
{8}8/1,2,3/7,6,5/3,2,1/6,7,8/2,3,1/7,6,2/1,4,8/7,5,
{8}1/Ch[4:3],1,2,2,3,3,4,4,5,4/6,7/3,2/8,,4,5,6,
{8}7-3[8:1],,8-4[8:1],,1-5[8:1],,2,3-7[8:1],,3/6,,8/5,,5,4,3,
{8}2-6[8:1],,1-5[8:1],,8-4[8:1],,7,6-2[8:1],,6/3,,1/4,,3,3qq6[8:4],,
{8}5,6,7,8,1h[8:2],,5h[8:3],2bx-6[8:1],,2,,7/4,,6,6,5,
{8}3/4,2/5,1/6,8/7,1/2,3/8,7/4,6-2[8:1]/5z1[8:1],,5/6,,8b,,7/4,4/7,5,
{8}6-2[8:1],,5-1[8:1],,4-8[8:1],,3,2>5[8:1]*<7[8:1],,2,,4/6hx[8:5],,8,1,2,
{8}3-7[8:1],,4-8[8:1],,5-1[8:1],,6,7<4[8:1]*>2[8:1],,7,,5/3hx[8:3],,6,6pp3[8:4],,
{8}4,3,2,1,8h[8:2],,4h[8:1],7bx<5-3>1[4:1],,7/4bxs8[16:3],,,,2,3,4,
{8}5/6,8,7,6,4/3,1,2,3,,4b/6b,2b/5b,4b/7b,1b/5b,,C,,
{8}8<5[16:3],,B7/B6,,1>4[16:3],,B2/B3,,7<4[16:3],,B6/B5,,8>3[16:3],,B1/B2,,
{8}6>3[16:3],,B5/B4,,7>2[16:3],,B8/B1,,5>6[2:1],,B4/B3,,4,,C,,
{8}5,{16}8,6,{8}1,2,3/4,5,4/3,2,3,{16}6,4,{8}7,8,1/2,3,1/2,8,
{8}1,{16}3,8,{8}2,1,8/7,6,8/7,1,2h[8:1],3h[8:1],4h[8:1],5h[8:1],6h[8:1],7h[8:1],8h[8:1],1h[8:1],
{8}2q4[8:3],,2,1<6[16:3],,1,3h[8:1],,6pp5[8:3],,6,4>8[16:3],,4,7h[8:1],,
{8}7/8,7/8,2/1,1/2,3/4,4/3,5/6,6/5,{16}7,8,6,1,5,2,4,3,6,5,7,4,8,3,1,2,
{8},,,,,,C,,
{8}6b-1[8:1],,5-2[8:1],,4-7-1-6[2:1],,3,2-5[8:1],,2,,4/7,,3,2/5,4,
{8}3-8[8:1],,4-7[8:1],,5-2-8-3[2:1],,6,7-4[8:1],,7,,5/2,,6,7qq2[2:1],8,
{8}1,2,3,4,5h[8:2],,1h[8:3],6b-2b[8:1],,6,,8/3,,2,2,1,
{8}7/8,6/1,5/2,4/3,6/5,7/4,3/8,2-6[8:1]/1z5[8:1],,2/1,,4b,{16}5,3,5,2,6,1,6,8,
{8}7b<4[6:1],,8v3[6:1],,1qq4<7[2:1],,2,3>8[8:1],,3,,2/5,,2,3/8,1,
{8}2>5[6:1],,1v6[6:1],,8pp5>2[2:1],,7,6<1[8:1],,6,,7/4,,3,2pp7[2:1],1,
{8}8,7,6,5,4h[8:2],,8h[8:1],3b^1-7^5b[4:1],,3/8bz4b[16:3],,,,7,6,5,
{8}4/3,1,2,3,5/6,8,7,6,,5b/3b,7b/4b,5b/2b,8b/4b,,,2V48[4:1],
{8},2,7-5[8:1],7,1-3[8:1],,7,7V15[4:1],,7,4-2[8:1],4,7,B6/B5,B6/B5,1V73[4:1],
{8},1,6-4[8:1],6,2-8[8:1],,5,5V73[4:1],,5,4w8[8:1],,4x,,,7-3[8:1],
{8},7,8-4[8:1],,1-5[8:1],,2,2-6[8:1],,2,1-5[8:1],,8-4[8:1],,7-2[8:1],,
{8}7qq1[8:3]/3-8[8:1],,3/7,,2,3,4,5b/1b,,7b/3b,6b/2b,,{32}1x,2x,3x,4x,5x,6x,7x,8x,1x,2x,3x,4x,5x,6x,7x,8x,
{8}1bx/5bx,,,{32}5bx/2bx,6x,7x,,{8},,{32}8bx/4bxqq1[4:3]*pp7[4:3],3x/7x,2x/6x,,{8},,,,,,,,,
{32}8bx/2bx>4-6<8[32:120],7x/3x,6x/4x,5xs1[32:117]*s1[32:117],{8},,,,,,,,,,,,,,,
E
