&title=Rolling Star☆彡
&artist=Larval Stage Planning
&first=0.1
&des=Kondou
&lv_5=11+
&inote_5=(135){1},,
{8}
2-4[8:4],,,,,,,,
1-4[8:4],,,,,,,,
8-4[8:4],,,,,,,,
7-4[8:4],,,,,,,,
3,3h[8:2],,4-1[8:2],,2,2,,
3,3h[8:2],,1-5[8:2],,4,4,,
3,3h[8:2],,5-8[8:2],,2,2,,
1>1[8:4],,,,,,5,5,
7b-2[8:1]/3b,,3-6[8:1],3,8-5[8:1],8,2,2,
3h[8:2],1,4h[8:2],1,5h[8:2],8,6,1,
2-5[8:1]/7,,6-1[8:1],6,3-8[8:1],3,5,5,
6,7h[8:1]/5h[8:1],,2^5[8:1]/4,,8h[8:2],,,
2b-7[8:1]/6b,,6-3[8:1],6,1-4[8:1],1,7,7,
6h[8:2],8,5h[8:2],8,4h[8:2],1,3,8,
7-4[8:1]/2,,3-8[8:1],3,6-1[8:1],6,4,4,
3,2h[8:1]/4h[8:1],,7h[8:1]/5h[8:1],,1,28,,
{16}3h[16:3],,,4,,,4,,
2h[16:3],,,4,,,4,,
1h[16:3],,,4,,,4,,
8-2[8:1],,,,7,,,,
6h[16:3],,,5,,,5,,
7h[16:3],,,5,,,5,,
8h[16:3],,,5,,,5,,
1-7[8:1],,4,,3,,,,
2h[16:3],,,4,,,4,,
8h[16:3],,,5,,,5,,
3h[16:3],,,4,,,4,,
1v3[16:2],,,,8,,,,
7h[16:3],,,5,,,5,,
1h[16:3],,,4,,,4,,
6h[16:3],,,5,,,5,,
8v6[16:2],,3,,1,,,,
2,,2,4,,,4,,3,,3,5,,,5,,
4,,4,6,,,5,,5-1[8:1]/7,,,,65,,,,
7,,7,5,,,5,,6,,6,4,,,4,,
5,,5,3,,,4,,4-8[8:1]/2,,3,,34,,,,
2,,2,5,,,5,,43,,3,7,,,7,,
65,,5,1,,,1,,8/3-8[8:1],,,,35,,,,
7,,7,4,,,4,,56,,6,2,,,2,,
34,,4,8,,,8,,1/6-1[8:1],,3,,65,,,,
3bqq5[8:4],,,,4,,,,5,,,,6,,6h[8:2],,
{8},4,3,2q6[8:2],,7,7,,
8<4[8:2],,4>8[8:2],,8<4[8:2],,4>8[8:2],,
8V64[8:2],,4,,2,2,1,,
6pp4[8:4],,5,,4,,3,3h[8:2],
{8},5,6,7p3[8:2],,2,2,,
1>5[8:2],,5<1[8:2],,1,,5,5h[8:2],
,3,2,1h[8:2],,8,7/2s6[8:6],63,
,,,,,,8,,
8b/2b-5[8:1],2,7,7,8-5[8:1]/5,8,3,
3,2-5[8:1]/5,2,7,7,85,5,63,6,
1/7-4[8:1],7,2,2,1-4[8:1]/4,1,6,
6,7-4[8:1]/4,7,2,2,14,4,36,3,
8/2-5[8:1],2,7,7,8-5[8:1]/5,8,3,
3,2-5[8:1]/5,2,7,7,85,5,63,6,
7-4[8:1]/1,7,3,3,7-4[8:1]/1,7,3,3,
1h[8:1],7h[8:1],5h[8:1],3h[8:1],8b,6,4,2,
7^4[8:1]/1,7,8,1,2q6[8:1]/8,2,1,8,
7^4[8:1]/1,7,8,1,82,2,64,6,
2^5[8:1]/8,2,1,8,7p3[8:1]/1,7,8,1,
2^5[8:1]/8,2,1,8,17,7,35,3,
7^4[8:1]/1,7,8,1,2q6[8:1]/8,2,1,8,
7^4[8:1]/1,7,8,1,82,2,64,6,
2-6[8:1]/8,2,6,7,8/2-6[8:1],2,6,7,
8/2,4,71,5,8-3[8:1]/2-7[8:1],,,,
2b-6[8:1],,5-8[8:1],5,2-5[8:1],2,6,6,
75,8,65,3,45,7,53,1,
7b-3[8:1]/2b,,4-1[8:1],4,7-4[8:1],7,3,3,
24,1,34,6,54,2,46,8,
7b/2b^5[8:1],,8-3[8:1],8,4^1[8:1],4,8,8,
71,3,12,6,78,4,82,54,
1b/7b^4[8:1],,1-6[8:1],1,5^8[8:1],5,1,1,
28,5,36,4,43,21,78,6b/5b,
,,,,,,,,
,,,,,,,,
