&title=THE IDOLM@STER
&artist=「アイドルマスター」より
&first=0.01
&des=Rotifer@
&lv_5=13
&inote_5=(165){4},,,,{1}8-5[2:1]*-5[2:1],
4V25[2:1]/6V85[2:1],
1q3[2:1]*<3[2:1],
1s5[2:1]*s5[2:1],
8>7[2:3]*<1[2:3],
{8},,,,,,,,8,
8,{16}1-5[8:1],1,,,{8}5,{16}4-8[8:1],4,,,,,{8}7<3[4:1],
7,,8,1,2>6[4:1],,1,
8,{16}7-3[8:1],7,,,{8}5,5,{16}4-8[8:1],4,,,{8}5<4[8:5],
{1}5,
{8}7<4[8:1],7,3,2-5[8:1],,8-4[8:1],,1-5[8:1],
,7-4[8:1],,2h[2:1],,3<7[4:1],,3,
,3,{4}3h[4:1],{8}1<2[2:1],7,{4}5h[2:1],
,,5-1[8:1],5/1,
{8}2>5[8:1],2,8,7-4[8:1],,1-5[8:1],,8-4[8:1],
,2-5[8:1],,7h[2:1],,6>2[4:1],,6,
,6,{4}6h[4:1],{8}8-4[8:1],6-2[8:1],8,6,
,3,2,1-5[8:1],,1,6,7,
8-4[8:1],1,2,3-7[8:1],4,5,6,6q3[4:1]*<3[4:1],
,,,,,3,2,1-5[8:1],
8,7,6-2[8:1],5,4,3>6[4:1]*p6[4:1],,,,,,1>4[8:1],
8<5[8:1],1,{4}8,
{16}1-5[8:1],2,{8}3,{4}1b,{16}4-7[8:1],3,{8}2,{4}4b,
{16}8-4[8:1],1,{8}2,{4}8b,{16}3-7[8:1],2,{8}1,{4}3b,
{8}2>5[8:1],2,8,7-4[8:1],,8-5[8:1],,1-4[8:1],
,2-5[8:1],,7h[2:1],,6>2[4:1],,6,
,6,{4}6h[4:1],{8}8>7[2:1],2,{4}4h[2:1],
,,4-8[8:1],4/8,
{8}7<4[8:1],7,1,2-5[8:1],,1-4[8:1],,8-5[8:1],
,7-4[8:1],,2h[2:1],,3<7[4:1],,3,
,3,{4}3h[4:1],{8}1-5[8:1],3-7[8:1],1,3,
,6,7,8-4[8:1],,8,3,2,
1>4[8:1],8,7,6<1[8:1],5,4,3,3p6[4:1]*>6[4:1],
,,,,,6,7,8<5[8:1],
1,2,3>8[8:1],4,5,6<3[4:1]*q3[4:1],,,,,,8<5[8:1],
1>4[8:1],8,{4}1,
{16}8-4[8:1],7,{8}6,{4}8b,{16}5-2[8:1],6,{8}7,{4}5b,
{16}1-5[8:1],8,{8}7,{4}1b,{16}6-2[8:1],7,{8}8,{4}6b,
{8}8,7,6V84[4:1],5,{2}4-2[8:1],
{8}3-7[8:1],3,7,6,5-1[8:1],5,1,2,
3-5[8:1],1,3,8,7-4[8:1],4,7,3,
2>7[4:1],1h[8:3],,,,,1,8,
1,2,3V15[4:1],4,{2}5-7[8:1],
{8}6-2[8:1],6,2,3,4-8[8:1],4,8,7,
6-4[8:1],8,6,1,{4}1<6[8:1]*>4[8:1],1w5[8:1],
{8}1,,,7/3,,5,4/6,3/7,
2b/8b,1-4[8:1],,7/1-6[8:1],,3/1,,,7/1,
8-5[8:1],,2/8-3[8:1],,6/8,,,2/8,
7/1-4[8:1],,1-5[8:1],,1qq3[2:1],,6h[2:1],
,,,,,4,5/3,6/2,
7/1,8-5[8:1],,2/8-3[8:1],,6/8,,,2/8,
1-4[8:1],,7/1-6[8:1],,3/1,,,7/1,
2/8-5[8:1],,8-4[8:1],,8pp6[2:1],,3h[2:1],
,,,,,5,4/6,3/7,
2b/8b,1>4[8:1],,5/1<6[8:1],,1/5,,,7/1,
8<5[8:1],,4/8>3[8:1],,4/8,,,2/8,
7/1>4[8:1],,1q5[8:1],,1qq3[2:1],,6h[2:1],
,,,,,4,5/3,6/2,
7/1,8<5[8:1],,4/8>3[8:1],,8/4,,,2/8,
1>4[8:1],,5/1<6[8:1],,5/1,,,7/1,
2/8<5[8:1],,8p4[8:1],,8pp6[2:1],,3h[2:1],
{16},,,,,,,,,,,,5,4,6,3,
{8}7<4[8:1],3,7,3,2>5[8:1],1,2,1,
8>3[8:1],7,6,5,{4}4-7[8:1]*-1[8:1],4,
{8}2>5[8:1],6,2,6,7<4[8:1],8,7,8,
1<6[8:1],2,3,4,{4}5-2[8:1]*-8[8:1],5,
{8}1-4[8:1],8,1,7,5-2[8:1],6,5,7,
1<6[8:1],2,3,4,{4}5-2[8:1]*-1[8:1],5,
{8}8-5[8:1],1,8,2,4-7[8:1],3,4,2,
{4}8w4[8:1],8,6/2,{8}7/1,6,
5b/4b,4/3-7[8:1],,2/3-8[8:1],,3/8,,,1/8,
8/7-3[8:1],,6/7-4[8:1],,7/4,,,4/5,
3/4-7[8:1],,4-8[8:1],,4pp1[2:1],,2h[8:3],
,,,,,1,2/8,3,
4b/5b,5/6-2[8:1],,7/6-1[8:1],,6/1,,,8/1,
1/2-6[8:1],,3/2-5[8:1],,2/5,,,5/4,
6/5-2[8:1],,5-1[8:1],,5qq8[2:1],,7h[8:3],
,,,,,1,2,3,
4,5,4,6,4-8[8:1],7,{4}4,
{8}1,8,1,7,1-5[8:1],6,{4}1,
{8}7,7-4[8:1],,3-8[8:1],,6pp5[2:1],,4h[2:1],
,,,,,3,2,1,
7-3[8:1]/8-4[8:1],7/8,,,,2/1,,,1<6[8:1]/2>5[8:1],
1/2,,,,7/8,,,2,
2-5[8:1],,6-1[8:1],,3qq4[2:1],,5h[2:1],
,,,,,,{4}6/2,
4/7-4[8:1],1,5/2-5[8:1],8,
{8}4/7-4[8:1],2,{4}1,{8}5/2-5[8:1],7,{4}8,
{1}4qq1[4:7]/8qq5[4:7],
E
