&title=24
&artist=Photon Maiden
&first=0.2
&des=ANEMONE
&des_5=ANEMONE
&lv_5=13
&inote_5=(110){4}1-5[16:3],3,4-8[16:3],6,
7-3[16:3],1,2-6[16:3],4,
,8-4[16:3],2,2<3[2:1],
{2}2,{4}8-4[16:3],8,
,8-4[16:3],6,5-1[16:3],
4,2-6[16:3],2<6[8:3],{8}B3,B4,
B5,,,5/7>2<7[8:3],4,3,4,5,
{32}4x,3xq6[32:15],,,,,,,,,,,,,,,,,,,{8}1-5[8:1],,1,
4b,{16}8,1,{4}8<4<8[2:1],{6}1,{48}2h[12:1],,,,,,,3,,,{8}3,
,4/5,{4}1/8-5q2[2:1],{16}2,,,3h[16:1],,4,{8}4,
{16},,3,2,{8}3-1-4[4:1],4-7-5[16:3],3,{16},,,,6,5,
6-1-6[2:1],5q2p5[16:7],{8}6,,,,,,,4/5,
6,4/5,3V17[4:1],,3,{16}5,5,,,{8}4/5,
3,4/5,6V82[4:1],{16},,6,B5,B4,B3,,,{4}4/5>1[16:3]*<1[16:3],
5bp1[16:3],5q1[16:3],5,
4qq4[4:1],4pp4[4:1],,C,
1q5[8:1]/5q1[8:1],5>1[8:1]/1<5[8:1],1q5[8:1]/5q1[8:1],1<5[8:1]/5>1[8:1],
1q5[8:1]/5q1[8:1],1<5[8:1]/5>1[8:1],1q5[8:1]/5q1[8:1],1b/5b,
{8}4/3h[2:1],2,1,8,{4}7w3[8:1],7,
5pp5[4:1],5qq5[4:1],,C,
8p4[8:1]/4p8[8:1],4<8[8:1]/8>4[8:1],8p4[8:1]/4p8[8:1],8>4[8:1]/4<8[8:1],
8p4[8:1]/4p8[8:1],8>4[8:1]/4<8[8:1],8p4[8:1]/4p8[8:1],8b/4b,
{8}5/6h[2:1],7,8,1,{4}2w6[8:1],2,
2/7,3/6,{2}4>1[16:3]/5<8[16:3],
{16},7,8,6,7,5,6,4,5,3,4,3,5,4,6,5,
{8}6/4,{16}5,5,{8}5,5/6,5/4,4/3,{16}5,5,{8}5,
5/4,{16}3,3,{8}5/3,{16}4,4,{8}4/6,{16}5,5,{8}5/3,{16}6,6,
{4}4/6,2/7,{2}8<5[16:3]/1>4[16:3],
{16},2,1,3,2,4,3,5,4,6,5,6,4,5,3,4,
{8}3/5,{16}4,4,{8}4,4/3,4/5,5/6,{16}4,4,{8}4,
4/5,{16}6,6,{8}4/6,{16}5,5,{8}5/3,{16}4,4,{8}4/6,{16}3,3,
{4}5/3,7pp4[8:3]/2qq5[8:3],{2}2b/7b,
{4}5b/4b,{16}3,4,3,4,{8}3<5[8:1],5q2[16:3],{4}3,
{16}E2,,,6,5,6,5,6qq4[16:3],{8}5,4pp6[16:3],{4}5,
B7,{16}4-8[16:3],4,,,5-1[16:3],5,,,3>6[2:1],3,,,{8}E4,
E5,{4}E6,1-5[16:3],1,
{16},,,4,6,4,7,4,{8}8>2[8:1],2p5[16:3],{4}8,
{16}B6,,,5,3,5,2,5,{8}1<7[8:1],7p4[8:3],{4}1,
{8}C,,,5/6,5/4,3/4,1/2>6[4:1],1/8,
{16}6>2[4:1],,,7,{4}7h[8:1],8-4[16:3],8,
{8},6/4,{4}2/8<4<8[2:1],{16}1h[8:1],,,2h[16:1],,3,{8}3,
,3/5,{4}1/7q6[4:1],{2}6>7[4:1],
{16},,3,4,{8}3<5[8:1],5qq3[8:1],3,{16},,,,6,5,
6,5,{8}6>4[8:1],{4}4>6V41[8:5],{8},,,1s5[4:1],
,,,6h[8:5],,4,{16}3,3,,,{8}2h[1:1],
,,4,{16},,5,5,6,7,,,{4}8,
1h[8:1]/8h[8:1],7h[8:1]/6h[8:1],3h[8:1]/2h[8:1],
5pp5[4:1]*qq5[4:1],5s1[16:3]*z1[16:3],,C/E7/E3,
2-7[8:1]/6-3[8:1],2>5[8:1]/6<1[8:1],2-7[8:1]/6-3[8:1],2>5[8:1]/6<1[8:1],
2-7[8:1]/6-3[8:1],2>5[8:1]/6<1[8:1],2-7[8:1]/6-3[8:1],2b/6b,
{8}7/5h[8:5],8,1,2,{4}2w6[8:1],2b,
4pp4[4:1]*qq4[4:1],4z8[16:3]*s8[16:3],,C/E3/E7,
7-2[8:1]/3-6[8:1],7<4[8:1]/3>8[8:1],7-2[8:1]/3-6[8:1],7<4[8:1]/3>8[8:1],
7-2[8:1]/3-6[8:1],7<4[8:1]/3>8[8:1],7-2[8:1]/3-6[8:1],7b/3b,
{8}2/4h[8:5],1,8,7,{4}7w3[8:1],7b,
6/3,4>2qq4[2:1]/5<7pp5[2:1],{2}4b/5b,
E
