&title=メズマライザー
&artist=サツキ
&first=0
&des=Luner
&lv_5=13+
&inote_5=(185)
{4},,,,
{16}5x,4x,6x,,
3x,4x,2x,,
7x,8x,6x,,
1x,1x,1x,1x,
{16}Cf,E6f,A3f,D8f,
D5f,A2f,E7f,B4f,
B1f,E6f,A3f,D8f,
Cf,,,,
{16}2xh[16:3]/4x,,,4,
3,,5,,
6h[8:2]/4,,,,
5,,6,6,
{16}5,7,,4,
8,7,6,5,
4h[16:3]/2,,,2,
3x,,1,,
{16}7h[16:3]/1,,,8,
7,,5,,
6/4h[8:2],,,,
5,6,7,8,
{16}1/2h[16:3],,,4,
2h[16:3],,,4,
3,5,3,,
6,4,6,,
{16}7xh[16:3]/5x,,,5,
6,,4,,
3h[8:2]/5,,,,
4,,3,3,
{16}4,2,,5,
1,2,3,4,
5h[16:3]/7,,,7,
6x,,8,,
{16}38,,12,,
38,,,6,
6,,5,,
47,,,,
{16}34,,25,,
16,,,,
8x,7x/1x,6x/2x,,
1x,2x/8x,3x/7x,,
{16}5xpp4V26[4:3],,,,
,,,,
,,,,
,,,,
{16}3xqq5V72[4:3],,,,
,,,,
,,,,
,,,,
{16}6xpp2V86[4:3],,,,
,,,,
,,,,
,,,,
{16}1x-4[4:1],,,,
,,,,
Ch[8:1],,,,
Ch[8:1],,,,
{16}3xq5-8-3[4:3],,,,
,,,,
,,,,
,,,,
{16}6xp3-1-6[4:3],,,,
,,,,
,,,,
,,,,
{16}1xs5[8:3],,,,
,,,,
,,,,
,,E7/B7/B6/Ch[8:1],,
{16},,,,
,,E3/B2/B3/Ch[8:1],,
,,1xh[8:3],,
,,8,,
{16}7-5b[8:1],,8,,
7,,4,,
8-4b[8:1],,1,,
8,,3,,
{16}1xb-5b[8:1],,2xb-4b[8:1],,
1xb,,2xb,,
,,5,,
6,,7,,
{16}8-4b[8:1],,4,,
8,,3,,
2-6b[8:1],,6,,
2,,5,,
{16}4xb-7b[8:1],,4b-1b[8:1],,
4xb,,4bx,,
,,8,,
8,,1,,
{16}2-4b[8:1],,1,,
2,,5,,
1-5b[8:1],,8,,
1,,6,,
{16}8-4b[8:1],,7-5b[8:1],,
8,,7,,
,,4,,
3,,2,,
{16}1-5b[8:1],,5,,
1,,6,,
7-3b[8:1],,3V51b[4:1],,
7,,2,,
{16},,3,,
4,,5,,
6,,7,,
8,,1,,
{128}2x-7b[4:1],6x-3[4:1],{64},{32},{16},,,
,,,,
,,,,
,,,,
{128}3xv8[4:1],5xv8[4:1],{64},{32},{16},,,
,,,,
,,,,
,,,,
{128}6xv1[4:1],4xv1[4:1],{64},{32},{16},,,
,,,,
,,,,
,,,,
{128}3xv8[4:1],5xv8[4:1],{64},{32},{16},,,
,,,,
,,,,
,,,,
{16}6x-8b[16:3]/3x^6qq5b[8:5],,,,
,,,,
,,,,
,,,,
{16}8,,8,,
7,,7,,
6,,6,,
5,,5,,
{16}4,5,4,5,
3,6,3,6,
2,7,2,7,
1,8,1,8,
{16}Ch[16:8],,,,
,,,,
,,,,
,,,,
{16}1b-4[8:1]/5b,,,,
17,,8,,
1-6[8:1]/5,,,,
13,,2,,
{16}1^4[8:1]/5,,,,
1^6[8:1]/7,,,,
1w5[8:1]/3,,,,
1,,,,
{16}7-4[8:1]/3,,8,,
2-5[8:1]/7,,1,,
28,,1>4q5<8[8:5],,
,,Cf,,
{16},,,,
,,,,
1x-5[8:1],,,,
1x,,,,
{16}8-5[8:1]/4x,,,,
8/2,,1,,
8-3[8:1]/4xh[16:4],,,,
8,,6,,
{16}8^5[8:1]/4xh[16:4],,,,
8^3[8:1],,,,
8-4[8:1]/6xh[16:4],,,,
8,,,,
{16}2x-5[8:1]/6,,1,,
7x-4[8:1]/2,,8,,
7/1x,,8^3[8:1],,
,,6pp4[8:3],,
{16},,,,
3qq5[8:3],,,,
,,,,
6,,7,,
{16}8-5b[8:1]/4,,,,
82,,1,,
8-3b[8:1]/4,,,,
86,,7,,
{16}8^5b[8:1]/4,,,,
8^3b[8:1]/2,,,,
8w4b[8:1]/6,,,,
8,,,,
{16}2-5b[8:1]/6,,1,,
7-4b[8:1]/2,,8,,
71,,8<5b[256:45]*<5p4b[256:115]*<5p4>1b[8:5],,
,,Cf,,
{16},,,,
,,,,
8-4b[8:1],,,,
8,,,,
{16}1-4b[8:1]/5,,,,
17,,8,,
1-6b[8:1]/5,,,,
13,,2,,
{16}1^4b[8:1]/5,,,,
1^6b[8:1]/7,,,,
1w5b[8:1]/3,,,,
1,,,,
{16}7-4b[8:1]/3,,8,,
2-5b[8:1]/7,,1,,
28,,1^6b[8:1],,
,,3q5b[8:2],,
{16},,,,
,,,,
8xb^5b[8:1],,5xb^8b[8:1],,
E8/A8/B8,,E2/A1/B1,,
{16}3xb^1-4pp4b[4:2],,,,
,,,,
,,,,
,,,,
{16}Cf,E4f,A6f,D2f,
D5f,A7f,E3f,B5f,
B8f,E4f,A6f,D2f,
Cf,,,,
{16}6xp1^8p3[4:2],,,,
,,,,
,,,,
,,,,
{16}1xz5[4:2]/8xs4[4:2],,,,
,,,,
,,,,
,,,,
{16}1xV35^7-1[4:2],,,,
,,,,
,,,,
,,,,
{16}1x-7^6-2[4:2]/3x-5^6-2[4:2],,,,
,,,,
,,,,
,,,,
{16}8v5v7[4:2]/4v1v3[4:2],,,,
,,,,
,,,,
,,,,
{16}8x-5-3[4:2],,,,
,,,,
,,,,
,,,,
{16}7x>3v5b[4:2],,,,
5x,,,,
,,,,
,,,,
{16}7xpp8-5b[4:2]/A3,,,,
A3,,,,
A3,,,,
,,,,
{16}7xv2[4:2],,,,
,,,,
2xv7[4:2],,,,
,,,,
{16}7xv2[4:2],,,,
,,,,
2xv7[4:2],,,,
,,,,
{16}7xp2[4:2],,,,
,,,,
2xq7[4:2],,,,
,,,,
{16}7xp2[4:2],,,,
,,,,
2xq7[4:2],,,,
,,,,
{16}7x<2[4:2],,,,
,,,,
2x>7[4:2],,,,
,,,,
{16}7x<2[4:2],,,,
,,,,
2x>7[4:2],,,,
,,,,
{16}7x>3[4:2],,,,
,,,,
3x<7[4:2],,,,
,,,,
{16}7x>2[4:2],,,,
,,,,
C,,,,
,,,,
{16}8x-5-8b[4:22]/1x-4-1b[4:22],,,,
,,,,
,,,,
,,,,
{16},,,,
,,,,
,,,,
,,,,
{16},,,,
,,,,
,,,,
,,,,
{16},,,,
,,,,
,,,,
,,,,
{16},,,,
,,,,
,,,,
,,,,
{16},,,,
,,,,
,,,,
,,,,
{16}E2/B1,,,,
,,,,
,,,,
,,,,
{16}Cf,E6f,A3f,D8f,
D5f,A2f,E7f,B4f,
B1f,E6f,A3f,D8f,
Cf,,,,
{16}1x>8[4:13],,,,
,,,,
,,,,
,,,,
{16},,,,
,,,,
,,,,
,,,,
{16},,,,
,,,,
,,,,
,,,,
{16},,,,
,,,,
,,,,
,,,,
{128}2x-7[8:1],7x-3[8:1],{64},{32},{16},,,
,,,,
{128}1x-6[8:1],4x-2[8:1],{64},{32},{16},,,
,,,,
{128}3xh[4:1],4x-8[8:1],{64},{32},{16},,,
,,,,
{128}8xh[4:1],7x-3[8:1],{64},{32},{16},,,
,,,,
{128}2x-7[8:1],3x-5[8:1],{64},{32},{16},,,
,,,,
{128}2x-8[8:1],6x-4[8:1],{64},{32},{16},,,
,,,,
{16}5xv2[8:1],,5x,,
8xp4[8:1],,8x,,
5xV71[4:1],,5x,,
1x,,2x,,
{16}3x-7b[8:1],,,,
8-2b[8:1],,8,,
3-7b[8:1],,,,
6-4b[8:1],,6,,
{16}8-6b[8:1],,,,
1-5b[8:1],,,,
2-4b[8:1],,,,
3,,,,
{16}2-8b[8:1],,2,,
7-3b[8:1],,7,,
4,,4-6-3-7-2-8b[8:5],,
,,,,
{16},,,,
,,,,
,,,,
8,,7,,
{16}6-2b[8:1],,,,
1-7b[8:1],,1,,
6-2b[8:1],,,,
3-5b[8:1],,3,,
{16}1-3b[8:1],,,,
8-4b[8:1],,,,
7-5b[8:1],,,,
6,,,,
{16}7-1b[8:1],,7,,
2-6b[8:1],,2,,
5,,5-1b[8:1],,
,,,,
{16},,2,,
3,,4,,
5,,6,,
7,,8,,
{16}Chf[4:7]/1,,,,
,,,,
,,,,
,,,,
{16}B1/B2/E2,,,,
B4/B3,,,,
B5,,,,
,,,,
{16}7^6-4[8:1]/3,,8,,
2-4^5[8:1]/7,,1,,
28,,1^2-4qq5^6-8[8:5],,
,,E6f,,
{16},,,,
,,,,
1v6[8:1]*p5[8:1],,,,
1,,,,
{16}8^7-5[8:1]/4,,,,
82,,1,,
8-2^3[8:1]/4,,,,
86,,7,,
{16}8v7-5[8:1]*-5[8:1]/4,,,,
8-2v3[8:1]*-3[8:1],,,,
8z4[8:1]*-4[8:1],,,,
8,,,,
{16}2^3-5[8:1]/6,,1,,
7-5^4[8:1]/2,,8,,
71,,8-3[8:1],,
,,6pp6-4[8:3],,
{16},,,,
3qq2-5[8:3],,,,
,,,,
6,,7,,
{16}8-5b[8:1]/4,,,,
82,,1,,
8-3b[8:1]/4,,,,
86,,7,,
{16}8^5b[8:1]/4,,,,
8^3b[8:1]/2,,,,
8w4b[8:1]/6,,,,
8,,,,
{16}2-5b[8:1]/6,,1,,
7-4b[8:1]/2,,8,,
71,,8<5p4>1b[8:5],,
,,Cf,,
{16},,,,
,,,,
8-4b[8:1],,,,
8,,,,
{16}1-4b[8:1]/5,,,,
17,,8,,
1-6b[8:1]/5,,,,
13,,2,,
{16}1^4b[8:1]/5,,,,
1^6b[8:1]/7,,,,
1w5b[8:1]/3,,,,
1,,,,
{16}7-4b[8:1]/3,,8,,
2-5b[8:1]/7,,1,,
28,,1^6b[8:1],,
,,3q5b[8:2],,
{16},,,,
,,,,
8xb^5b[8:1],,5xb^8b[8:1],,
E8/A8/B8,,E2/A1/B1,,
{16}3xb^1-4pp4b[4:2],,,,
,,,,
,,,,
,,,,
{16}Cf,E4f,A6f,D2f,
D5f,A7f,E3f,B5f,
B8f,E4f,A6f,D2f,
Cf,,,,
{16}2x^5[16:3]/1x,,,5qq6[32:9],
2,,6,,
7h[8:2],,,,
,,7,5,
{16}6-1[16:2],8,,1,
6,2,3,4,
5-2[8:1],,,1,
5x,,8,,
{16}7^2[16:3],,,2q3[32:9],
7,,3,,
4h[8:2],,,,
,5,6,7,
{16}8-4[8:1],,,1,
8,,,2,
6,4,8,,
3,5,1,,
{16}7^4b[16:3]/8x,,,4pp3b[32:9],
7,,3,,
2h[8:2],,,,
,,2,4,
{16}3-8b[16:2],1,,8,
3,7,6,5,
4-7b[8:1],,,8,
4x,,1,,
{16}2-6[8:1]/6,,3/5,,
2/6,,,7,
8-4[8:1],,1,,
82,,,,
{16}5-2[8:1]*-8[8:1]/3,,4/6,,
5,,,,
1x/2x,3x/8x,4x/7x,,
8x/7x,6x/1x,5x/2x,,
{16}3x^6b[8:1]/6x^3b[8:1],,,,
,,,,
,,,,
,,,,
