&title=YOUNITHM
&artist=大国奏音
&first=1.91
&des=speckles
&lv_5=14+
&inote_5={8}(130)C/B3/B6,E8,E2,D6,E2,E6,B2,B7,
E3,A8,E4,B8,B2/E6,{24}B7,B8,B1,{8}B2,C,
B8/C/B5,B2,E7,E2,B7,E3,A8,E4,
B8/C,B2,D2/B6,B3/A8,,E8,B6,E4,
B2/C/B8,B5,A1,B6,E2,A7,B3,B7,
B3,B6,B5,B4,C/B3,{24}B2,B1,B8,{8}B7,E4,
C/B6/B2,B8,B3/B4,E8,B6/B5,B2,B8/B7,B3/B4,
A6/B6,D8/E8,A2/B2,A4/B4,,B8/B5,B1/B4,E3,
{4}6b,3h[4:1],5h[4:1],4h[4:1],
3h[4:1],{8}1,1h[4:1],,6h[4:1],,5,
{1}5qq6<8[4:3],
{8}2h[8:1],6h[8:1],3h[8:1],7h[8:1],2h[8:1],5h[8:1],1h[8:1],7h[8:1],
{4}2,7h[4:1],8h[4:1],5h[4:1],
2h[4:1],{8}3h[8:1],4h[8:1],,1h[8:1],,4,
{2}8-5pp8[1:1],2h[4:1],
8-5<8[4:3],2h[4:1],
{8}1b,B7,1,B5,1,B8,1,E7,
1,B4,1,A7,{24}1/B7,B6,B5,B4,{12},{8}1,C,
1b/7bh[8:1],2,7h[8:1],3,7h[8:1],2,7h[8:1],1,
2h[8:1],8,2h[8:1],6,{32}1,2,3,4,{8}5,{32}8,7,6,5,4,3,2,1,
(260){4}8bh[4:1],7h[4:1],6h[4:1],5h[4:1],
4h[4:1],3h[4:1],2h[4:1],1h[4:1],
{8}6v1[8:1],4,{4}6,3,3/8,
{8}3/8,7,6,5,{4}4,{8}4,5,
{4}6/3,4/3,{8}5-1[8:1],2,{4}5,
{8},3,{4}7/4-1[8:1],{8}7/4,6,{4}5-8[8:1],
{16}5/1,2,{8}3,{4}3-8[8:1],{16}3/7,6,{8}5,5,2,
7,{16}A1,A2,A3,A4,A5,A6,A7,A8,B6,B5,B4,B3,B2,B1,
{4}B8,3/6-1[8:1],6/3-8[8:1],3/5-1[8:1],
5/2-5[8:1],2/7-4[8:1],7/3-6[8:1],3/7>2[4:1],
{8}7/4V68[8:1],4,{4}4-1[8:1],4,4/7<4[8:1],
{8}7/3v8[8:1],3,{4},{8}6,5,4,{16}3,8,
{8}3,2,1/8,7,{16}5,4,{8}5,3,3,
{16}2,1,{8}2,6,4,{16}7,8,{8}7,2>5[8:1],4,
2/6,6,6x,6x,6x,5,4-2[8:1],5,
{16}4/6,7x,{8}8x,{16}7x,6x,{8}5x,{16}1,2,{8}3,{16}6,7,{8}8,
{4}4-1[8:1],4/5h[8:1],8-6[8:1],8/4h[8:1],
3-6[8:1],3/7h[8:1],8-4[8:1],8/2h[8:1],
6-1[8:1],{8}6,4,{4}3-8[8:1],3/4h[8:1],
7-5[8:1],{8}7,1,{4}2-5[8:1],{8}2/8,8,
{4}8,{16}7,6,5,4,1,2,3,4,7,6,5,4,
2,3,{8}4,7<5[8:1],3,{4}3/7v4[8:1],2/7,
1h[4:1],7,{8}2>4[8:1],6,{4}6/2v5[8:1],
7/2,{8}8h[8:1],2,7,3,6h[8:1],4,
5<8[8:1],5,{4}5,{8}1>4[8:1],1,{4}1,
{8}7<4[8:1],7,{4}7,{8}3>8[8:1],3,{4}3,
{8}5<8[8:1],4,{4}5/C,{8}1>4[8:1],8,{4}1/C,
{8}6<1[8:1],5,{4}6/C,{8}4>1[8:1],5,{4}4/C,
{8}8-4[8:1],8,{4}8,{8}1,2,{4}5/3,
8/4-6[8:1],7/4-1[8:1],4/8,{16}8,7,6,5,
{8}4b/1-5[8:1],1,7-4[8:1],7,2-4[8:1],2,{4}6x,
{16}6x,3x,6x,3x,6,3,6,3,5x,4x,5x,4,5,4,{8}5,
6x/3x,6/3-8[8:1],,3/7,,2,,1/7,
{16}7,6,5,4,3,2,1,8,7,4,3,2,8,7,6,5,
{8}4/1,4/1v4[8:1],,1/8,,8,,4/7,
{16}1,2,3,4,5,6,7,8,1,4,5,6,2,3,4,5,
{8}6/8,8/6-2[8:1],,6/8,,7,,6/4,
1,1/8-4[8:1],,8/2,,2,,5,
{16}3/8,{8},{16}7,{8},6b/2h[8:3],{4},{8}6,2,
{16}6,3,{8},{16}3/7,{8},{16}2,{8}8,8,{4}8/4,
{8}2,6,{4}2-4[8:1]*<8[8:1],2,6x,
{16}5,4,{8}5,,{16}7,8,{4}7,{16}3,4,{8}3,
8x,8,7/1,4,3,4,{4}1V74V63[2:1],
{2}1,1h[4:1],
{4}7v4[8:1],{8}7<4[8:1],2,2/7,{4},{16}8,7,
{4}8>2[8:1],{8}8v3[8:1],5,{4}8/5,7,
{16}6,7,8,1,2,3,4,5,6,7,8,1,2,3,4,5,
{48}{24}6/2,1,8,7,6,5,4,3,2,1,8,7,6,5,4,3,2,1,8,7,6,5,4,3,
(130){4}2b/Cf,5h[4:1],4h[4:1],3h[4:1],
2h[4:1],{8}5h[8:1],4h[4:1],,8h[4:1],,6h[8:1],
{1}3v8-2-4-1-7v2[4:7],
,{4}8,
4h[4:1],5h[4:1],6h[4:1],
7h[4:1],{8}4h[8:1],5h[4:1],,1h[4:1],,3h[8:1],
{1}6v1-7-5-8-2v7[4:7],
,{8}2b,
B7,B8,B6,B7,B8,B5,B6,
B7,B8,B7,B1,B3,{16}5h[16:1],6h[16:1],5h[16:1],6h[16:1],{8}5h[16:1],
(260){1}7b/B2f/B3/E3/E2/B1,
3b/B6/E7f/B7/E6/B5,
{2}4b/E1/B8f/E8/B7,4/B7/B8,
{8}3,4,3,4,{16}3,5,3,5,3,5,3,5,
{8}3-8[8:1],6x,3,5,6-1[8:1],3,6,3,
4v1[8:1],7,4,7,8<5[8:1],2,{4}8,
{8}1,{16}3,5,{8}3-8[8:1],7,{4}3/7,{8}5<8[8:1],1,
{16}5/1,2,3,4,5,6,7,8,1,4,5,6,7,8,1,2,
{4}3b-5[8:1],{8}3x,7,8-6[8:1],2,8,3,
4>2[8:1],7,4,7,6<8[8:1],1,6,3,
2-5[8:1],7,2,8,7-4[8:1],3,7,2,
{4}8<4[8:1]/1>5[8:1],8/1,3xv8[8:1]/6xv1[8:1],6/3,
5-8[8:1],5-2[8:1],{16}B1/5v8[8:1],B7,{8}A6,{4}5,
1-4[8:1],1-6[8:1],{16}B5/1v4[8:1],B3,{8}A2,{4}1,
{8}7x,7,5/3,5,8/4,8,2/6,2/6,
5/4,{24}5/4,6,7,{4}1/8h[4:1],{24}1,2,3,4,5,6,7,8,1,2,3,4,
{4}5/8b-4[8:1],8,{2}2/B7/E7/B6,
{4}1h[4:1],7h[4:1],4h[4:1],5h[4:1],
2pp4[8:1],2,7/E3/B2/B3,{8}7,6,
{4}5q1[8:1],5,{2}3h[4:1]/E7/B6/A6,
{8}7,8,7,3,7,5,7,2,
2,5,2,4,{4}2/7,6/3,
{8}7/4,7,1,6,1,4,1,8,
{4}1/8,6v3[8:1]/5v2[8:1],{2}5b/6b,
{16}8,7,6,5,4/1,2,3,4,5,8,7,6,{8}5/1>4[8:1],1,
{16}8,7,6,5,B4,B3,B2,B1,B8,B7,B6,B5,{4}B4,
{16}7,6,5,4,1,2,3,4,8,7,6,5,4/B8,B2,B4,B6,
{8}C,{16}5x,4x,6x,3x,7x,2x,8x,1x,8x,1x,8x,1x,8,1,
{4}8b/Cf,3/7,7/3-1[8:1],8/3-5[8:1],
8/3>1[8:1],7/3<5[8:1],7/3,3/6-8[8:1],
2/6-4[8:1],2/6-1[8:1],6/2,2V46[4:1],
6<2[4:1],2>6[4:1],6V82[4:1],2-4[8:1],
7-1[8:1],7-5[8:1],7-2[8:1],3-8[8:1],
6x-4[8:1],2-4[8:1],7/2-8[8:1],5v8[8:1],
5b/1p4[8:1],A1f/6q2[8:1],6,3v8[8:1],
3/7v5[8:1],A7f,{8}2,2,8,8,
{4}8/3,7/3,3/7-5[8:1],4/7-1[8:1],
4/7<5[8:1],3/7>1[8:1],3/7,7/2-4[8:1],
6/2-8[8:1],2-5[8:1],2/6,6V82[4:1],
2>6[4:1],6<2[4:1],{2}2V46[4:1],
{8}1,1,7,7,4,4,6,6,
8-6[8:1],8,1-3[8:1],1,5-7[8:1],5,4-2[8:1],4,
1-6[8:1],1,4-8[8:1],4,5-7[8:1],5,{4},{16}1,
2,3,4,5,6,7,8,1,2,3/E2,4/E1,5/E8,E7,{8}E6,
{4}5q1[8:1],3x/5p1[8:1],7x/5-8[8:1],3/5-2[8:1],
7x-3[4:1],3x-7[4:1],7x>2[4:1],2V86[4:1],
4x-2[8:1],4q8[8:1],4p8[8:1],7x-5[8:1],
2v5[8:1],7>2[8:1],3<6[8:1],3-1[8:1],
8<5[8:1],8-4[8:1],2-4[8:1],2<8[8:1],
7-4[8:1],2/7-1[8:1],3/7-5[8:1],7/4,
{8}3,3,6,6,1,1,2/7,2/7,
3/6,3/6,4/7,4/7,8/3,8/3,{32}8,7,6,5,{8}4/1,
1-3[8:1],1,7-5[8:1],7,4x-1[8:1],4,8x-6[8:1],8,
{16}5xv8[8:1],4,3,2,{8}1xv4[8:1],1,7v2[8:1],7x,{4}7,
{8}5xV71[8:1],5x,2-5[8:1],2,8-4[8:1],8,{4}8>3[8:1],
{16}7x/8,6x,{8}5x,{4}5<8[8:1],{16}1/5,2,3,4,{4}5xh[8:1],
{16}8b,7,6,5,8,7,6,5,4,3,2,1,5,6,7,8,
5b,4,3,2,5,6,7,8,5,4,3,2,5,4,3,2,
{48}{24}5b,6,7,8,1,2,3,4,5,6,7,8,1,2,3,4,5,6,7,8,1,2,3,4,
{96}{32}7b,6,5,4,3,2,1,8,{4}7,{32}1b,2,3,4,5,6,7,8,1w5b[16:1],2,3,4,5,6,7,8,
(130){1}Cf/1bv7v5v3v1b[2:3],
,{4}3>7[4:3],
{2},{4}7>3[1:1],
{1},{8}4-8-2-6[1:1],
B1,B7,B8,B2,B4,A3,D4,
A4,D3,A3,D4,1v6>5v2[4:7],{24}1,2,8,{8}1,1,
E1,B1,D8,B8,E7,B4,E8,E1,
A1/A3,E4,B5,C,,C,8v2v5b[1:2],7/1,
{1}8b,
