&title=Cybernecia Catharsis
&artist=Tanchiky
&first=0
&des=Seanangle
&des_5=Seanangle
&lv_5=14
&inote_5=(184)
{1},
{32}8b/3b<1[4:7],B8,Cf,B4,,,,,,,,,,,,,,,,,,,,,,,,,,,,,
{4},,,,7-4V25[4:7],,,,,,,,
{8}3h[4:1],,,7h[8:3]/2-5V31[8:9],,,,,1V75b[4:2],,,,,,,,
{8}1h[4:1],,,2h[8:2]/8h[8:2],,,3qq5[8:5]/7qq1[8:5],,,,,,,,37,,
{8}7V51[4:1],8,1,2,3V15[4:1],4,5,6,87,6,54,3,12,3,45,6,
{8}5/7-4[8:1],8,71,2,5/3-8[8:1],4,35,6,7/8<5[8:1],,8>3[8:1]/2,,6/8<5[8:1],,8>3[8:1]/2,,8/6xqq1[4:2],,,,2h[4:1],,,,
{4}12,83,4h[4:1]/7h[4:1],,
{8}8<5[8:1]/3,3,83,3,1>4[8:1]/6,6,1-7b[8:1]/6,6,
{4}1b-3[8:1],1bw5[8:1],1b,37,
{8}2V48[4:1],1,82,7,6V84[4:1],5,46,3,12,3,45,6,87,6,54,3,
{8}4/2-5[8:1],1,28,7,4/6-1[8:1],5,64,3,2/1>4[8:1],8,1<6[8:1]/7,,3/1>4[8:1],,1/7,,
{32}3-8[8:1]/8xh[16:3],,,,,,,,B8,C,B4,,,,,,6-1[8:1]/1xh[16:3],,,,,,,,B1,C,B5,,,,,,
{32}8x-4[8:1]/3h[16:3],,,,,,,,E3,B2,B1,,,,,,1x-5[8:1]/6h[16:3],,,,,,,,E7,B7,B8,,,,,,
{8}8bxh[8:1]/3,3,4bxh[8:1]/6,6,7bxh[8:1]/1,1,3bxh[8:1]/4-6[8:1],4,
{4}4bx-2[8:1],4bx-8[8:1],4bx,
{16}8x/4x,73,62,51,
{8}8V24b[8:5]/4h[8:2],,,,5,6,7,8,1V75[8:5]/5h[8:2],,,,4,3,2,1,
{8}8>4b[8:5]/4h[8:2],,,,5,6,7,8,
{16}1h[4:1]/5h[4:1],,,,,,84,73,6-1[8:1]/2-5[8:1],,,,6b/2b,,,,
{8}83,4,56,7,8/1q5[8:1],,1/2h[8:1],,
{8}16,5,43,2,1/8p4[8:1],,8/7h[8:1],,
{8}35,2,46,7,28,3,17,6,54,3,21,8,7-4[8:1]/5-2[8:1],,75,,
{16}2x,3,4,5,8x,7,6,5,1x,2,3,4,7x,6,5,4,
{16}1x,2,6x,5,1x,2,6x,5,2x,3,7x,6,2x,3,7x,6,
{8}54,3,21,8,7-4[8:1]/5,8,71,2,3-7[8:1]/1,4,35,6,1w5[8:1],,1,,
{8}7h[4:1]/3,4,5,76,{24}2,1,2,1,,,
{8}7h[4:1]/3,4,5,76,{24}2,1,2,1,,,54,,,3,,,24,,,3,,,
{8}45,6,78,6,45,3,12,3,54,7,54,2,3-8[8:1]/4-7[8:1],,34,,
{8}2>5[8:1],2,2,8p4[8:1],8,8,1q5[8:1],1,1,7<4[8:1],7,7,3,21,3,45,
{8}6<1[8:1],6,6,4p8[8:1],4,4,5q1[8:1],5,5,3>8[8:1],3,3,7,64,3,21,
{8}8p4[8:1],1,8,2>5[8:1],1,2,7<4[8:1],8,7,1q5[8:1],8,1,{16}6,4,7,3,8,2,7,3,
{8}6<1[8:1],5,6,3-8[8:1],4,3,5q1[8:1],4,5,4,5,4h[8:1],{32}1,2,3,4,5,6,7,8,1,2,3,4,5,6,7,8,
{1}1bqq6[4:14]*pp4[4:14],,,,
{8}5>1[4:2],,5h[4:2],,,,,,
{8}4<8[4:2],,4h[4:2],,,,,,
{8}5>1[4:2],,5h[4:2],,,,,,
{8}1>6[4:3]/Ch[4:3],,,,,,,,
{4}8pp6[4:3],4x,3x,2x,
{4}1qq3b[4:3],5x,6x,7x,
{4}8-4<6[4:3],4,3,2,
{4}1-5>3b[4:3],5,6,7,
{8}7h[4:1],3,4,57,{24}2,1,2,1,,,
{8}7h[4:1]/3,4,5,67,{24}2,1,2,1,,,54,,,6,,,54,,,3,,,
{16}4,5,4,5,2,6,2,6,4,5,4,5,3,7,3,7,
{24}1,5,1,5,1,5,1,5,1,5,1,5,3v8[8:1]/7-4[8:1],,,,,,3b/7b,,,,,,
{8}2pp8[4:1],,8,7,6pp4[4:1],,8,1,
{8}2-5[8:1],3,8-4[8:1]/2,7,1>4[8:1]/8,2,7/1,6,
{8}45,3,21,3,45,6,7<5[8:1]/8p4[8:1],1,
{4}8>2[8:1]/7q3[8:1],7-5[8:1]/8-4[8:1],78,3b/6b,
{8}2>5[8:1],18,2,6,7<4[8:1],81,7,3,
{4}1w5[8:1],1b,8<5[8:1]*>3[8:1],8b,
{16}26,,1,,6,5,6,,73,,8,,3,4,3,,
{16}2h[8:1]/7h[8:1],,,,4,5,4,5,3,6,3,6,4,5,4,5,
{16}3v8[8:1],,1,,37,6,5,,6v1[8:1],,8,,26,3,4,,
{8}7x-4[8:1],6,1-5[8:1]/7,2,8<5[8:1]/1,7,2/8,3,
{8}54,6,78,6,54,3,2>4[8:1]/1q5[8:1],8,
{4}1<7[8:1]/2p6[8:1],2-4[8:1]/1-5[8:1],21,6b/3b,
{8}7p3[8:1],82,74,1,2q6[8:1],17,25,8,
{8}8>3[8:1],4,8<5[8:1],4,8-4[8:1],4,8,3,
{8}21,3,45,6,78,6,54,3,
{16}2,8,2,8,3,7,3,7,2,8,4,6,1bq5[8:1],,,,
{8}1/7<4[8:1],7,7,1q5[8:1],1,1,8p4[8:1],8,8,2>5[8:1],2,2,6,78,6,54,
{8}3>8[8:1],3,3,5q1[8:1],5,5,4p8[8:1],4,4,6<1[8:1],6,6,2,35,6,78,
{8}1q5[8:1],8,1,7<4[8:1],8,7,2>5[8:1],1,2,8p4[8:1],1,8,
{16}3,5,2,6,1,7,2,6,
{8}3>8[8:1],4,3,6-1[8:1],5,6,4p8[8:1],5,4,5,4,5h[8:1],{32}8,7,6,5,4,3,2,1,8,7,6,5,4,3,2,1,
{1}8b-6-4-2-8[4:14]*>8[4:14],,,,
{8}4,5>2[4:1],6,7h[4:1],,,5,6>6[8:5],7,8h[8:5],,,,,,,
{8}5,4<7[4:1],3,2h[4:1],,,4h[4:2],3,
{8}2,1h[8:1],,25,36,7-3[8:1]/4q2b[8:1],,,
