&title=MAX 360
&artist=BEMANI Sound Team "[𝑥]"
&first=1.45
&des=
&smsg=
&des_5=Neopharmazz
&lv_5=13+
&inote_5=(180){16}
7,,7,,6,7,,6,7,,7,,6,7,,6,
7,,7,,6,7,,6,7,,7,,7,,,,
2,,2,,3,2,,3,2,,2,,3,2,,3,
2,,2,,3,2,,3,2,,2,,2,,,,
84,,26,,3,4,,4,3,,28,,6,5,,5,
6,,71,,3,4,,4,3,,28,,17,,,,
15,,37,,2,1,,1,2,,45,,7,8,,8,
6,5,6,,3,4,3,,8,1,8,1,8,1,8,1,
2b/7b,,4,,B1/E7,,5,,B8/E3,,4,,
B2/B6,,5,,B3/B7,,B1/E2,,B4/E4,,B8/E8,,E6/B5,,3,,E1/B6,,6,,
E8/B2,,3,,B1/B5,,6,,E7/E5,,B1/E2,,B3/E4,,B5/E6,,
B7/E8,,1,,E3/E4,,8,,E6/E7,,1,,B2/B4,,8,,
B5/B7,,E2/E3,,E6/E7,,E4/E5,,E8/E1,,7,,E2/E6,,2,,
E4/E8,,7,,B6/B2,,2,,B7/B3,,B1/E1/B8,,B5/B4/E5,,E7/B6/B7,,
E3/B3/B2,,43,,B8/B7/E7,,56,,B1/B2/E3,,42,,E8/B7/B6/E6,,57,,
E2/B2/B3/E4,,B5/B4/E5,,E7/C/E3,,B8/B1/E1,,8,1,7,2,6,3,5,4,
6b<3[8:3]*q3[8:3],,,,,,,,,,,,4>5[2:1]*q5[2:1],,5,,
4,,,,,,,,,,8h[4:1],,,,4qq1[8:5],8qq5[16:9],
4,,,,,,,,,,,,,,,,
3h[4:1],,,,6h[4:1],,,,1h[8:1],,2h[8:1],,3h[8:1],,4h[8:1],,
8h[8:1],,7h[8:1],,6h[8:1],,7h[8:1],,8h[8:1],,4h[8:1],,3h[8:1],,2h[8:1],,
3h[8:1],,4h[8:1],,5h[8:1],,6h[8:1],,5h[8:1],,1h[8:1],,2h[8:1],,1h[8:1],,
Ch[4:1],,,,8h[8:1],,6h[8:1],,7h[8:1],,1h[8:1],,3h[8:1],,2h[8:1],,
7,5,6,4,5,3,4,2,6,8,7,1,8,2,1,3,
8b/4b,,7h[8:1],,5h[8:1],,7h[8:1],,1h[8:1],,5h[8:1],,3h[8:1],,1h[8:1],,
3h[8:1],,7h[8:1],,1h[8:1],,3h[8:1],,5h[8:1],,E7/B7/B6,,B8/B1/E1,,B2/B3/E3,,
B5/B4/E5f,,2h[8:1],,4h[8:1],,2h[8:1],,8h[8:1],,4h[8:1],,6h[8:1],,8h[8:1],,
6h[8:1],,2h[8:1],,8h[8:1],,6h[8:1],,4h[8:1],,B2/B3/E3,,B8/B1/E1,,E7/B7/B6,,
B5/B4/E5f,,8h[8:1],,4h[8:1],,6h[8:1],,2h[8:1],,E8/B8/B7,,E2/B1/B2,,E4/B4/B3,,
E6/B6/B5f,,1h[8:1],,5h[8:1],,3h[8:1],,7h[8:1],,E2/B1/B2,,E8/B8/B7,,E6/B6/B5,,
E4/B4/B3f,,8h[8:1],,4,,B6/B5/B1/B2,,E8/Cf/E4,,1h[8:1],,5,,B4/B3/B7/B8,,
E2/Cf/E6,,4,5,3,6,4,5,2,7,3,6,1,8,2,7,
1b/8b,,1,,5,1,,5,2,,2,,6,2,,6,
3,,3,,7,3,,7,4,,4,,4,,,,
8,,8,,4,8,,4,7,,7,,3,7,,3,
6,,6,,2,6,,2,5,,5,,5,,5,,
5b/4b-1[8:1],,5,,4,5,,5,1-6[8:1],,8,,1,8,,8,
6-3[8:1],,7,,6,7,,7,3w7[8:1],,4,,3,,,,
8-5[8:1],,,1,8-4[8:1],,,1,8,,1,,2,,3,,
4,5,4,5,3,6,3,6,2,7,2,7,1,8,1,8,
2b/7b,,3,4,,2,5,2,5,,6,5,,7,4,7,
4,,1,8,,2,7,2,7-3[8:1],,1-5[8:1],,7,,1,,
8,,2,1,,3,8,3,7,,7,8,,6,1,6,
2,1,2,6,5,6,3,4,3,7,8,7,1,5,3,7,
,,{64}2b/6b,E7f/E3f,B7/B3,B8/B4,{16}E1/E5,,4,5,3,6,,7,8,,6,5,7,
4,,2,1,,3,4,2,5-1[8:1],,4-8[8:1],,5,,4,,
6,,75,,3,,42,,7,,68,,2,,31,,
E8,E2,B7,B2,B6,B3,E6,E4,B8,B1,B7,B2,B6,B3,B5,B4,
6b<5[4:9],,5,,6,,5,,6,,5,,6,,5,,
6,,7,,6,,7,,6,,7,,6,,7,,
8,,7,,8,,7,,8,,1,8,2,7,4,5,
3b>4[4:8],,4,,3,4,,4,3,,2,,3,2,,2,
3,,1,,3,1,,1,3,,4,,3,,2,,
1,,2,,1,,8,1,7,2,6,3,5,4,6,3,
7b/2b,,5,,B1/B2,,6,,B3/B4,,7,,E2/B2,,8,,
E4/B3,,B1/B5,,B2/B6,,B3/B7,,B4/B8,,4,,B5/B6,,3,,
B7/B8,,2,,B6/E6,,1,,B7/E8,,1,8,2,7,3,6,
4w8[16:1],5,4,,{64}4b,B4,C,B8,{16},,,B7/B6,,2,,B2/B3,,7,,
C,,E1/B1/E5/B5,,E2/B2/E6/B6,,E3/B3/E7/B7,,E4/B4/E8/B8,,6,,B1/E2,,3,,
E8/B8,,6,,1,8,2,7,3,6,4,5,E7/E3/Cf,,,,
8b^5[2:3]/4b,,4,,3,3,,3,3,,3,,2,2,,2,
2,,2,,1,1,,1,1,,1,,1,,,,
1^4[2:3]/5,,5,,6,6,,6,6,,6,,7,7,,7,
7,,7,,8,8,,8,8,,8,,8,,,,
8V64[2:3]/4,,4,,3,3,,3,3,,3,,2,2,,2,
2,,2,,1,1,,1,1,,1,,1,,,,
1V35[8:5]/5,,5,,6,6,,6,6,,6,,7,7,,7,
{12}4,4,4,6,6,6,2,2,2,{16}1bw5[4:7]/8bw4[4:7],,,,
,,,,,,,,,,,,,,,,
,,,,,,,,,,,,,,,,
7,1,5,3,7,1,5,3,8,2,6,4,8,2,6,4,
7,8,4,3,7,8,4,3,1,2,6,5,1,2,6,5,
8,8,6,2,8,8,6,2,1,1,7,3,1,1,7,3,
8,8,5,3,8,8,5,3,1,1,6,4,1,1,6,4,
8,8,8,8,7,7,7,7,6,6,6,6,5,5,5,5,
4,4,4,4,3,3,3,3,2,2,2,2,1,1,1,1,
8h[8:1],,7h[8:1],,6h[8:1],,5h[8:1],,4h[8:1],,3h[8:1],,2h[8:1],,1h[8:1],,
8,2,6,5,7,1,4,3,1,2,6,4,7,8,5,3,
7,8,6,2,1,3,6,5,7,,B4/B3/E4,,,B5/B6/E6,,,
2,1,3,7,8,6,3,4,2,,E8/B7/B8,,,B1/B2/E2,,,
6,5,7,3,4,2,8,8,7,5,6,2,4,3,1,1,
7,3,5,2,6,4,8,1,8,,E6/B5/B4/E4,,,E8/B8/B1/E2,,,
6,8,5,3,1,4,6,3,7,,E8/B8/B7/B4/E4/B3,,,B6/E6/B5/B1/B2/E2,,,
2,1,4,7,8,5,1,8,3,,E1/B8/B1/B5/E5/B4,,,E7/B7/B6/B2/B3/E3,,,
6,8,4,3,1,5,6,2,4,,E7/B7/E8/B8/B6/E6/B5,,,B1/E2/B2/E3/B3/E4/B4,,,
{12}48,48,48,,,,15,15,15,,,,
36,36,36,2-6[16:1]/7-3[16:1],27,27,{64}2b/7b,B7/B2,Cf,B6/B3,,,,,,,,
,,,,,,,,,,,,,,,,
,,,,,,,,,,,,,,,,
,,,,,,,,,,,,,,,,
,,,,,,,,,,,,,,,,
,,,,,,,,,,,,,,,,
,,,,,,,,,,,,,,,,
,,,,,,,,,,,,,,,,
,,,,,,,,,,,,,,,,
,,,,,,,,,,,,,,,,
,,,,,,,,,,,,,,,,
,,,,,,,,,,,,,,,,
,,,,,,,,,,,,,,,,
,,,,,,,,,,,,,,,,
,,,,,,,,,,,,,,,,
,,,,,,,,,,,,,,,,
,,,,,,,,,,,,,,,,
,,,,,,,,,,,,,,,,
,,,,,,,,,,,,,,,,
,,,,,,,,,,,,,,,,
,,,,,,,,,,,,,,,,
,,,,,,,,,,,,,,,,
,,,,,,,,,,,,,,,,
,,,,,,,,,,,,,,,,
,,,,,,,,,,,,,,,,
,,,,,,,,,,,,,,,,
,,,,,,,,,,,,,,,,
,,,,,,,,,,,,,,,,
,,,,,,,,,,,,,,,,
,,,,,,,,,,,,,,,,
,,,,,,,,,,,,,,,,
,,,,,,,,,,,,,,,,
,,,,,,,,,,,,,,,,
,,,,,,,,,,,,,,,,
,,,,,,,,,,,,,,,,
,,,,,,,,,,,,,,,,
,,,,,,,,,,,,,,,,
,,,,,,,,,,,,,,,,
,,,,,,,,,,,,,,,,
,,,,,,,,,,,,,,,,
,,,,,,,,,,,,,,,,
,,,,,,,,,,,,,,,,
,,,,,,,,,,,,,,,,
,,,,,,,,,,,,,,,,
,,,,,,,,,,,,,,,,
,,,,,,,,,,,,,,,,
E
