&title=Streak
&artist=ARM(IOSYS)
&first=0
&des=Dororo
&lv_6=13
&inote_6=(150)
{1},
{16}7h[1:4]/3b,,,,2,,,,
{6}
1,8,,
{8}
6,5,4,3,
{12}
2,1,8,,6,5,
{16}
4,3,2,1,8,,6,5,
{24}
4,3,2,1,8,,6,5,4,3,2,1,
{32}
8,,6,5,4,3,2,1,8,,6,5,4,3,2,1,
{48}
8,,6,5,4,3,2,1,8,,6,5,4,3,2,1,8,,6,5,4,3,2,1,
{16}
8-4[8:1],,,,,,,,
6,5,,4,5-8[8:1],,6,,3,3,2,1,,8,1,,
7-3[8:1],,8,,4-1[8:1],,5,,6-2[8:1],,5-2[8:1],,6,,5,,
7,8,,1,8-5[8:1],,7,,2,2,3,4,,5,4,,
7b,6b,7b,6b,7b,6b,7b,6b,8-5[8:1]/5-2[8:1],,85,,,,,,
3,4,,5,4-1[8:1],,3,,6,6,7,8,,1,8,,
2-6[8:1],,1,,5-8[8:1],,4,,3-7[8:1],,4-7[8:1],,3,,4,,
1-5[8:1],,,,,,,,1-5[8:1],,,,,,,,
{24}
4,5,4,5,4,5,4,5,4,5,4,5,
{16}
3-8[8:1]/6-1[8:1],,,,3b/6b,,,,
1^4[8:1]/3,,,,1^6[8:1]/7,,,,4-8[8:1]/1,3,2,1,,,,,
1^6[8:1]/7,,,,1^4[8:1]/3,,,,6-2[8:1]/1,7,8,1,,,,,
7^2[8:3]/1-5[8:1],,,,1^4[8:3],,,,3^6[8:3],,,,5,,,,
1h[2:1],,,,5,,4,,3,1,3,1,7,1,7,1,
8^5[8:1]/6,,,,8^3[8:1]/2,,,,5-1[8:1]/8,6,7,8,,,,,
8^3[8:1]/2,,,,8^5[8:1]/6,,,,3-7[8:1]/8,2,1,8,,,,,
1/7-2[8:1],,,6,6/7b,,,,3-6[8:1]/1,,,4,3b/4,,,,
5-1[8:1]/7-3[8:1],,,,,,,,
{12}
2b,4b,6b,3b,5b,7b,
{16}
5-8[8:1],,,,4h[4:1]/5,,,,2-6[8:1],4,6-2[8:1],4,,,,,
5-2[8:1],,,,6h[4:1]/5,,,,8-4[8:1],6,4-8[8:1],6,,,,,
7^4[8:1],,,,2-7[8:1]/7-3[8:1],,,,2^5[8:1],,,,
{24}
6b,7,8,1,,,
{16}
8h[2:1],,,,4,,5,,6,8,6,8,2,8,2,8,
4-1[8:1],,,,5h[4:1]/4,,,,7-3[8:1],5,3-7[8:1],5,,,,,
4-7[8:1],,,,3h[4:1]/4,,,,1-5[8:1],3,5-1[8:1],3,,,,,
2-5[8:1],,,,2h[4:1],,,,6-1[8:1],,,,6h[4:1],,,,
2b,,,,8,8,8,8,8-4[8:1],8,8,8,,,,,
{32}
1b/3h[8:1],8,7,6,5h[8:1],,,,2h[4:1],,,,8b,7,6,5,
4h[8:1],,,,1h[4:1],,,,7b,6,5,4,3h[8:1],,,,
{16}
8h[8:1],,7h[8:1],,1h[8:1],,8h[8:1],,
{48}
2b,3,,,,,8b,7,,,,,3b,4,,,,,7b,6,,,,,
{16}
1,3,1,3,1,3,1,3,8,6,8,6,8,6,8,6,
8-3[8:1],,3-7[8:1],,84,,4-1[8:1],,,,45,,5b,,,,
{32}
8b/6h[8:1],1,2,3,4h[8:1],,,,7h[4:1],,,,1b,2,3,4,
5h[8:1],,,,8h[4:1],,,,2b,3,4,5,6h[8:1],,,,
{16}
1h[8:1],,2h[8:1],,8h[8:1],,1h[8:1],,
{48}
7b,6,,,,,1b,2,,,,,6b,5,,,,,2b,3,,,,,
{16}
48,,43,,47,,42,,
{12}
1-6[16:1],2b,3b,4-1[16:1],5b,6b,
{16}
7h[8:1],,,8h[8:1]/6h[8:1],,,1-5[8:1]/5,,,,4,,4,,,,
7^2[8:1],,6,5,7,,4,,3/8-4[16:1],,,
{48}
4/8,3,2,1,,,,,,
{16}
5,5,
8/6-2[8:1],,7,8,6,,1,,12,,35,35,,68,68,,
1^6[8:1],,3,4,1,,5,,57,7,,
{48}
18,7,6,5,,,
{16}
2,4,3,
5-1[8:1],,4,6,5,,8,,8/1b,2/7b,3b/6,4/5b,,6,4,8,
2^7[8:1],,3,4,2,,5,,6/1-5[16:1],,,
{48}
1/5,6,7,8,,,,,,
{16}
4,4,
1/3-7[8:1],,2,1,3,,8,,78,,64,64,,13,13,,
8^3[8:1],,6,5,8,,4,,42,2,,
{48}
18,2,3,4,,,
{16}
7,5,6,
4-8[8:3],,,,,,,,,,7,,1,8,,8,
2-5[8:1],,,,4,,,,7h[8:3],5^2[16:3],4^1[16:3],3^8[16:3],,,,,
7-2[8:1],,,,2,,,,4h[8:3],2^7[16:3],1^6[16:3],8^5[16:3],,,,,
4-1[8:1],,,,4-7[8:1],,,,4-8[8:1],,,,4b,,,,
8h[8:3]/4h[8:3],,,,,,
{32}
,15,26,37,4-1[8:1]/8-5[8:1],,,,26,,,,,,,,,,,,
{16}
2^5[1:1]/6^1[1:1],,,,,,,,,,,,,,,,
,,,,,,,,,,,,,,,,
,,,,,,,,,,,,,,,,
