&title=PANGRAMIST
&artist=ルゼ & horoscope with trapman a.k.a. DETRO VS LisicA
&first=-0.26
&des=強欲で金満な壺(kms & 415 with 小狼白夜 a.k.a. Spectrum 11 VS 八雲ちぐさ)
&des_4=強欲で貪欲な壺(kms & 415 with 小狼白夜 a.k.a. Spectrum 11 VS 八雲ちぐさ)
&des_5=強欲で金満な壺(kms & 415 with 小狼白夜 a.k.a. Spectrum 11 VS 八雲ちぐさ)
&lv_4=12+
&lv_5=14
&inote_4=(180){4},4/5,6,7,
8,4,3,2,
1,4/5,6,4/5,
3,5/6,7,4/3,
2,{16}5,,,6,,,{8}7,{16}4,,,3,
,,{8}2,{16}6,,,7,,,{8}8,{16}3,,,2,
,,{8}1,{4}7-4[8:1],1-5[8:1],8-4[8:1],
,3pp8[8:3]/5qq8[8:3],{8},,,A8f,
,,(185)7,7h[8:1],,1,{4}1h[8:1],
{8}8,8h[8:1],,2,2,7,7,3,
3,5,5,5h[8:1],,4,{4}4h[8:1],
{8}6,6h[8:1],,3,3,7,7,1,
1,8,8,2h[8:1],,8,{4}6h[8:1],
{8}8,2h[8:1],,8,6,8,2,8,
6,8,2,8h[8:1],,2,{4}4h[8:1],
{8}2,8h[8:1],,2,4,2,8,2,
4,2,(190){4},{8}2h[4:1],,,7h[8:1],
,,{4}1h[4:1],{8},8h[8:1],,,{4}1pp5[4:1],
{16},,,,,,,,8,,,7,
,,{8}6,{16},5,,,4,,,3,,,{8}2,
{64},1,{4},{16},,,{32},{8}7h[4:1],,,2h[8:1],
,,{4}8h[4:1],{8},1h[8:1],,,{4}8qq4[4:1],
{12},,,,,,5x/3x,,4x/6x,
,3x/5x,,3x/4x,,4x/5x,,5x/6x,,7x/4x,,8x/3x,
,1x/2x,,{4}1-7[32:3]/2-6[32:3],,1-5[32:3]/2-4[32:3],
,1-5[8:1],2-4[8:1],8-6[8:1],
1,1-5[8:1]*-4[8:1],,8-4[8:1]*-5[8:1],
,3-8[8:1],6-1[8:1],4-8[8:1],
5,{16}7/1,,,7/1,,,{8}7/1,{16},2/8,,,2/8,
,,2/8,,,{8}4/5,{16},4/5,,,{8}4/5-1[8:1],{16}5,4,
{4}5b,{12}2,8,2,7,1,7,2,4,3,
7,5,6,1pp5[2:1]*qq5[2:1],{4},,,{16},,{24},(195){8}6<1[8:1],
5,4,3>8[8:1],4,5,
6<1[8:1],5,4,3>8[8:1],4,5,6,6,
2,2,8,8,1,1,7,7,
2,2,8,1,7,2,8,1,
7,2,8<5[8:1],1,2,3<6[8:1],2,1,
8<5[8:1],1,2,3<6[8:1],2,1,8,8,
2,2,6,6,4,4,5,4,
6,3,7,2,8,1,7,2,
6,3,{16}5,5,,4,{8}4,{16}3,3,,2,{8}2,
{16}1,1,,8,{8}8,{16}7,7,,6,{8}6,{16}5,5,,4,
{8}4,{16}6,6,,3,6,3,6,3,6,3,6,4,5,4,
5,4,5,4,5,3,6,3,6,4,5,4,{4}5b-1[8:1],
1b<1V75V31qq5[0.3077##9]*>1V35V71pp5[0.3077##9],(200),{1},,,,,,,{4},,,C,
{8}E8/E7/B7,C,,E6,
{4}E2/B2/E3,C,{8}E8/B8,E6/B5,,B1/E2,
{4}B4/E4,C,{8}A7/B7/E7/E8,A3/E4/B3/E3,,A6/B6/E7/E6,
{4}A2/E2/B2/E3,E8/E4,E6/E2,E7/E3,
E1/E5,5/4,4/5,3/6,
2/7,3/6,2/7,1h[16:5]/8h[8:1],
,8-4[8:1]/1-5[8:1],1/8,1-6[8:1]/8-3[8:1],
8/1,Cfh[4:3],{8},,,,,,(205)6,
6,5,7,3,3,
4,2,{4}8-5[8:1]/1-4[8:1],,6-1[8:1]/3-8[8:1],
{8},,2,2,1,3,7,7,
8,6,{4}6-3[8:1]/8-3[8:1],,4-1[8:1]/5-8[8:1],
{8},,7,8,5,2,1,4,
6,3,7,1,5,2,8,4,
6,3,4/5,4/5,3/6,3/6,2/7,2/7,
1/8,1/8,{4}1-5[8:1],8-4[8:1],7-3[8:1],
{8},,5/2h[4:7],5h[8:1],,5h[8:1],,4h[8:1],
,5h[8:1],,4h[8:1],,5h[8:1],,6h[8:1],
,7b/3b,4b/8bh[4:7],4h[8:1],,4h[8:1],,3h[8:1],
,4h[8:1],,3h[8:1],,4h[8:1],,5h[8:1],
,,6/5,5/6,{4}7/4,{8}4/3,3/4,
{4}5/2,{8}1,2,3,4,5,6,
7,8,8/1,1/8,7/2,2/7,6/3,6/3,
4/5,5/4,{16}5,6,7,8,1,2,3,4,{12}5h[6:1],,4,
,4pp8[0.2904##0.5714]/5qq1[0.2904##0.5714],,(210){4},,,,1,
1,8,
8,2,2,7,
7,1,8,2,
7,3,6,4,
5,4/5,5/6,3/4,
{8}5,5,4,4,6,6,3,3,
5,5,4,3,5,6,3,2,
6,7,{4}8b/1b,2b/4b,7b/5b,
{16},,,,3,4,{8}3,,5/2,{4}1/6,
{16}7,8,{8}7,1/6,1/6,7/8,6/1,2/5,3/6,
{4}4/5,3/4,5/6,{8}4,3,
2,1,8,7,6,5,{4}4/5,
{16}4,5,{8}4-7[8:1],,5,,1-6[8:1],,8,
,8-3[8:1],,1,,5-2[8:1],,4,
,4,{4}1-5[8:1],2-4[8:1],8-6[8:1],
1-4[8:1],5-1[8:1],3-8[8:1],7,
1,8p3[8:1]/7<4[8:1],,1q6[8:1]/2>5[8:1],
,4p7[8:1]/3>8[8:1],,5q2[8:1]/6<1[8:1],
,8b>8[2:1],,8b>8[2:1],
,8b>4[4:1],4b<8[4:1],8b>4[4:1],
4b<8[4:1],,,Cfh[4:1],
,(215)2/7p5[2:1],,,,7/2q4[2:1],
,,,7p4[2:1]/2q5[2:1],
,,,8h[2:1],
,1-5[8:1],
1b,{8}6/4,3,2/6,7,8/3,2,
1/6,7,8/1,2,1/8,7,1/8,2,
1/8,7,1/8,1/8,2/7,2/7,3/6,3/6,
4/5,4/5,{16}3,6,3,6,2,7,2,7,{4}1b-5[8:1],
1b,{8}6/4,6,6/3,6,6/4,6,
6/3,6,6/2,6,6/2,6,6/2,6,
{4}6/3,{8}1/6,1,1/7,1,1/6,1,
1/5,1,1/6,1,1/6,1,{4}6/1h[8:3],
{8},,7/1,7,7/2,7,7/3,7,
{4}7/2,{8}1/7,1,1/6,1,1/7,1,
{4}1/8,{8}8/1,8,8/2,8,8/3,8,
8/4,8,8b/4,8,8/4,8,8/4,8,
8/4,8,(210)8b/3,8,8/3,8,8/3,8,
8/3,8,(200)8b/2,8,8/2,8,8/2,8,
8/2,8,(190)8b/1,8,8/1,8,8/1,8,
8/1,8,(185)8b/1,8,8/3,8,8/2,8,
8/4,8,(180){4}8bw4[1:1],{1},{4},,{8},{16}B2,
C,{4}B6,
E
&inote_5=(180){4},{8}5/6h[8:11],4,,4,,3,
,2,,3,,4,{16}6/5,,,2/3,
,,{8}8/7,2/7h[8:11],2,,2,,2,
,2,,1,,2,{16}7/2,,,1/6,
,,{8}8/3,{16}1/2,,,8/3,,,{8}7/4,{16}8/1,,,7/2,
,,{8}3/6,{16}8/7,,,1/6,,,{8}2/5,{16}8/1,,,7/2,
,,{8}3/6,{4}1/8,{16}7,7,{8}7,{16}1,1,{8}1,
8,1/7,,1/7,6-3[8:1]/2-5[8:1],1/7,{4}2b/6b,
{8},,(185)1-6[8:1],8,1,7-4[8:1],3,7,
2-5[8:1],6,2,8-3[8:1],2,8,1>4[8:1],5,
6,7,8-3[8:1],1,8,2-5[8:1],6,2,
7-4[8:1],3,7,1-6[8:1],7,1,8<5[8:1],4,
3,2,1-5[8:1],5,1,7-3[8:1],3,7,
2-6[8:1],6,2,8-4[8:1],4,8,1>4[8:1],8<5[8:1],
1,8,2-7[8:1],7,2,6-3[8:1],3,6,
2-5[8:1],5,2,7-4[8:1],4,7,2-5[8:1],6-1[0.3243##0.1622],
2,6,(190){4},3h[4:1]/8-6[8:1],{8}8-4[8:1],2h[8:1],
{4}8-6[8:1],1h[4:1]/8-4[8:1],{8}8-6[8:1],2h[8:1],{4}8-4[8:1],
3/8,1-3[8:1],1-5[8:1],8/1-3[8:1],
7/1-5[8:1],8/1-3[8:1],{8}8/1-5[8:1],7,7/1-3[8:1],8,
{4}1/8,7-5[8:1],1h[4:1]/7-3[8:1],{8}7-5[8:1],2h[4:1],
{4}7-3[8:1],4h[4:1]/7-5[8:1],{8}7-3[8:1],2h[4:1],{4}7-5[8:1],
4,8h[8:1]/2h[8:1],4h[8:1]/6h[8:1],{12}7b/5b,,1b/3b,
,1b/7b,,2b/5b,,4b/7b,,6b/1b,,8b/3b,,8b/1b,
,6b/3b,,{4}2-4[8:1],8h[4:1]/2-6[8:1],{8}2-4[8:1],7h[4:1],
{4}2-6[8:1],8h[4:1]/2-4[8:1],{8}2-6[8:1],7h[4:1],{4}2-4[8:1],
2/7,8/1-6[8:1]*-4[8:1],{12},,,7/5,,4/6,
,3/5,,{4}7b/8b,1b/2b,{8}2b/7b,{16}4,5,
3,6,{8}2,{16}7/8,,,6/5,,,{8}7/8,{16},6/5,,,3/4,
,,5/6,,,{8}3/4,{16},1/2,,,3/4,,,2/1,
,,{8}1/2,{12}1/8,7,6,5/1,2,3,8-6[8:1]/4-2[8:1],,,{4}8-5[8:1]/4-1[8:1],
8b/4b,,1-5[8:1],
1x,(195){16}7,8,7,8,{8}7b,{16}2,1,2,1,{8}2b,
{16}7,8,7,8,{8}6b,{16}2,1,2,1,{8}3b,7-4[8:1],7,
3-8[8:1],3,7-4[8:1],7,3-8[8:1],3,6-3[8:1],6,
2-7[8:1],2,6-3[8:1],6,2-7[8:1],2,6,6,
3,3,{16}5,4,5,4,{8}6b,{16}4,5,4,5,{8}3b,
{16}6,5,6,5,{8}7b,{16}3,4,3,4,{8}2b,7-4[8:1],7,
2-5[8:1],2,8-4[8:1],8,1-5[8:1],1,6-1[8:1],6,
3-6[8:1],3,8-4[8:1],8,1-5[8:1],1,8-6[8:1],8,
1,1,{16},,,7b/8b,,,{8}1b/8b,{16},1b/2b,,,1b/8b,
,,6b/4b,,,{8}2b/7b,{16},3b/5b,,,7b/2b,,,8b/1b,
,,{8}8,{16},8,1,8,1,7,2,7,2,7,2,7,
2,8,1,8,1,8,1,8,1,7,2,8,{4}1-5[8:1],
1w5[0.3077##0.15],(200)1bp6>6[4:29]*q4<4[4:29],{1},,,,,,,{4},,,{8}7,
{32}E7,B6,B5,E5,,,,,{8}E2,E4,E8,
{4}E6,C,{8}E8/B8,E6/B5,,B1/E2,
{4}B4/E4,{8}2,{32}E3,B3,B4,E5,,,,,{8}E8,E6,E2,
{4}E4,{8}E8,E2,{16}B6,E5,,,B1,B2,B3,B4,
B5,B6,B7,B8,{8}8x,8,1,1,7x,7,
2,2,2x/8x,1,1x/7x,8,1x/8x,6x/3x,
{16},4x/5x,,,6,7,{8}8,{16}3,2,{8}1,{16}8,1,7,2,
{4}3x-8[8:1]/6x-1[8:1],3x/6x,,Cfh[4:1],
{8},,(205)7h[8:1],{16}5,6h[8:1],,4,{8}5h[8:1],{16}3,4,3,4,
2,5,1,6,{4}7h[4:1]/8-3[8:1],{16},,,,7,6,{8}5h[8:1],
{16}8,1,2,3,{8}4h[8:1],{16}5,3h[8:1],,6,{8}2h[8:1],{16}8,1,8,1,
7,2,6,3,{4}5-8[4:1],4,3,
{16}2,8,1,8,{8}1h[8:1],{16}7,8,{8}7,{16}3,4,3,4,{8}3,
6,6,{16}2,3,{8}4,{16}1,2,3,4,{4}5,
{16}6,3,7,2,8,1,7,2,8,1,7,2,6,3,7,2,
6,3,7,2,{4}7-4[8:1],7-2[8:1],7w3[8:1],
7,1bh[4:7]/5h[4:7],{8},,,,,,,,,,,,,2b/6b,
{4}4b/8bw4[8:3],{16},,,,,,,,,5,
{8}4,{4}3h[8:1]/6h[8:1],7h[8:1]/4h[8:1],{16}3h[8:1]/6h[8:1],,,2h[8:1]/5h[8:1],
,,{8}1/6,7/8,{16}7,8,6,8,{8}7,{4}1-5[8:1],
1,{8}8/2,{16}1,2,8,2,{8}1,{16}8h[8:1]/2h[8:1],,,3h[8:1]/7h[8:1],
,,{8}4/6,4/5,4/5,3/6,3/6,2/7,2/7,
1/8,1/8,{16}8,1,8,1,7,2,6,2bx-7[16:1]/6bx-3[16:1],,,{8}2bx/6bx,
{16},8bz4[0.2909##0.7857],,,(210){4},,,,7-3[8:1],
1-5[8:1],8,
3/6,{8}4,5,{4}4p5[4:1],6,
8,2-6[8:1],8-4[8:1],1q6[4:1],
6<1[4:1],1q6[4:1],6,1,
2/7,7-4[8:1],1-5[8:1],8,
2/7,{8}1,8,{4}1q8[4:1],7,
5,7-4[8:1],1-5[8:1],8,
4,4b/1b-5[8:1],1b/4b-8[8:1],4x,
{24},,,,,,7x,1x,7x,1x,{12}7x,{24},,,{8}8,{4}7/2,
{24}8x,1x,{12}7x,2,6,{24},{8}2,{12}2,3,4,7,6,5,
{6}3h[6:1],{24}6x,6x,{16}1x,2,{8}3,{16}5x/4x,6,{8}7,{24}2x,8x,2x,8x,,,7x,
1x,7x,1x,{48},,,,{16}8,1,8,1,8,7,6,5,1,2,3,4,
8,7,6,5,4,5,4,5,{8}4,6/5,{16},6/4,,,6/3,
,,3/8,,,{8}2/6,{16},7/4,,,1/5,,,1/7,
,,8,1,8,1,8,1,,7,{8}2,{16}6,3,,5,
{8}4,{16}5,4,5,4,5,4,6,3,7,2,8,1,7,2,
6,3,7,2,{12}8b,8x,8x,7b,7x,7x,6b,6x,6x,
5b,5x,5x,4b,4x,4x,3b,3x,3x,2b,2x,2x,
1b,1x,1x,{96}8bx,,,7,,,{32}6,5,4,3,2,1,8x,7,6,5,4,3,2,1,8bx,7,6,5,4,3,2,1,
8x,7,6,5,4,3,2,1,8bx,7,6,5,4,3,2,1,8bx,7,6,5,4,3,2,1,8bx,7,6,5,4,3,2,1,
8bx,7,6,5,4,3,2,1,{4}8bx,,Cfh[4:1],
B7/E7/B6/B2/E3/B3,(215)2/7p5[2:1],,,,7/2q4[2:1],
,,,7p4[2:1]/2q5[2:1],
,,,8h[2:1],
{8},,1-5[8:1],{16}1,8,
{4}1b,{16}7,6,7,6,{8}7,{16}4,5,4,3,{8}4,
{16}7,8,{8}7,{16}2,1,2,1,{8}2,{16}7,8,7,6,{8}7,
{16}4,5,{8}4,{16}4,3,2,1,5,6,7,8,3,2,1,8,
6,7,8,1,4,3,2,1,5,6,7,8,{4}1bp5[8:1]*q5[8:1],
1b,{16}7,3,7,3,8,2,8,2,7,3,7,3,
6,4,6,4,5,5,5,5,5,5,5,5,5,5,5,5,
{4}5,{16}2,6,2,6,1,7,1,7,2,6,2,6,
3,5,3,5,4,4,4,4,4,4,4,4,{8}4,3x/5x,
{16},7x/1x,,,8,8,8,8,8,8,8,8,8,8,8,8,
{4}8,{16}1,1,1,1,1,1,1,1,1,1,1,1,
{4}1,{16}4,5,4,5,3,6,3,6,2,7,2,7,
1,8,1,8,1b,1,1,1,1,1,1,1,1,1,1,1,
1,1,1,1,(210)1b,1,1,1,1,1,1,1,1,1,1,1,
1,1,1,1,(200)1b,1,1,1,1,1,1,1,1,1,1,1,
1,1,1,1,(190)1b,1,1,1,1,1,1,1,1,1,1,1,
1,1,1,1,(185)1b,1,1,1,1b,1,1,1,1b,1,1,1,
1b,1,1,1,(180){4}1bw5[1:1],{1},{4},,{8},{16}B7,
C,{4}B3,
E
