&title=Fallen Symphony
&artist=Ludicin
&first=0.02
&des=Mirai__「Eternal Hymn」
&lv_6=15+
&inote_6=(250)
{4},,,,,,,,
{4}1>6[2:3]/7bh,,,,
{4},,,,
{4}7V51[2:3],,,,
{4},,,,
{4}2V84[2:3],,,,
{4},,,,
{4}5<2[2:3],,,,
{4},,,,
{4}3-1-7-5[1:2],,,,
{4}7h,,,,
{4}5-3-1-7[1:2],,,,
{4}8h,,,,
{4}7>4[1:2],,,,
{4}6h,,,,
{4}4V61[2:3],,,,
{4}7h,,,,
{8}3h[8:1],,5,6,7h[8:3],4h[8:3],,,
{8}6h[8:1],,4,3,2h[8:1],5h[8:1],4,6,
{8}3h[8:1],,5,6,7h[4:1],4h[4:1],,6,
{8}3,5,2h[4:1],4h[4:1],,3h[4:1],5,6,
{8}7h[8:1],5,4,3,2h[8:3],5h[8:3],,,
{8}3h[8:1],,5,6,7h[8:1],4h[8:1],5,3,
{8}6h[8:1],,4,3,2h[4:1],5h[4:1],,3,
{8}6,4,7h[4:1],5h[4:1],,6h[4:1],4,3,
{16}2>5[8:1],,,,8/2,,7,,6<8[8:1],4,,4,6,,,,
{16}2>5[8:1],,,,8/2,,7,,6h[8:1],,,,3/5,,6,,
{16}7<4[8:1],,,,1/7,,2,,3-1[8:1],5,,5,3,,,,
{16}7<4[8:1],,,,8/7,,1,,2V48[16:3],,,,5,,6,,
{16}7<4[8:1],,,,1/7,,2,,3>1[8:1],5,,5,3,,,,
{16}7<4[8:1],,,,1/7,,2,,3h[8:1],,,,6/4,,3,,
{16}2>5[8:1],,,,8/2,,7,,6-8[8:1],4,,4,6,,,,
{16}2>5[8:1],,,,5/2,,6,,7b-1b[8:1],,,,,,,,
{16}2h[8:1],,4,,5,,6,,7,5,7,5,7h[8:1],,4,,
{16}3h[8:1],,7,,6,,5,,2h[8:1],,5h[4:1],,3h[8:1],,,,
{16}7h[8:1],,5,,4,,3,,2,4,2,4,2h[8:1],,5,,
{16}6h[8:1],,2,,3,,4,,7h[8:1],,4h[4:1],,7h[8:1],,,,
{16}8h[8:1],,5,,4,,3,,2,5,2,5,2h[8:1],,6,,
{16}7h[8:1],,2,,3,,4,,8h[8:1],,4-2[8:1],,7h[8:1],,,,
{16}6h[8:1],,1,,2,,3,,4,8,4,8,3h[8:1],,7,,
{16}6h[8:1],,3,,2,,1,,5h[8:1],,2h[4:1],,6h[8:1],,,,
{16}3h[4:1],,4,,5,,6,,7<4[8:1],,,,1/7,,2,,
{16}3h[8:1],,6,,7,,8,,1V35[8:1],,,,1/7h[8:1],,,,
{16}6h[4:1],,4,,3,,2,,1>4[8:1],,,,7/1,,6,,
{16}5h[8:1],,3,,2,,1,,8-4-6[16:3],,,,3/8,,2,,
{16}7h[4:1],,,,3,,2,,1>4[8:1],7,1,7,1,,,,
{16}7h[8:1],,,,6/4,,3,,2-5b[8:1],,,,8b,,8b,,
{4}8bh[4:1],,,,
{16}7,,7,,7,3,7,3,2/6,,2,,1/5,,5,,
{16}2h[8:1]/4h[8:1],,,,2h[8:1]/4,,4,,3/5h[8:1],,3,,4h[8:1]/6,,6,,
{16}7h[8:1]/5h[8:1],,,,7/5,,7V51b[4:1]/5,,7V52[8:1]/5,,,,,,,,
{16}3h[8:1]/5h[8:1],,,,3h[8:1]/5,,5,,4/6h[8:1],,4,,5h[8:1]/7,,7,,
{16}5h[8:1]/7h[8:1],,,,1/7,,1V73b[4:1]/7,,1V74[8:1]/7,,,,,,,,
{16}2h[8:1],,,,7h[8:1]/5,,5,,6/4h[8:1],,6,,5h[8:1]/3,,3,,
{16}2h[8:1]/4h[8:1],,,,2/4,,2V48b[4:1]/4,,2V47[8:1]/4,,,,,,,,
{16}6h[8:1]/4h[8:1],,,,6h[8:1]/4,,4,,5/3h[8:1],,5,,4h[8:1]/2,,2,,
{16}4h[8:1]/2h[8:1],,,,8/2,,8V26b[4:1]/2,,8V25[8:1]/2,,,,,,,,
{8}7h[16:1],7h[16:1]/4h[16:1],7h[16:1]/3h[16:1],7h[16:1]/3h[16:1],6h[16:1]/2h[16:1],6h[16:1]/2h[16:1],6h[16:1]/2h[16:1],6h[16:1]/2h[16:1],
{8}5h[16:1]/1h[16:1],5h[16:1]/1h[16:1],5h[16:1]/1h[16:1],5h[16:1]/1h[16:1],4h[16:1]/8h[16:1],4h[16:1]/8h[16:1],4h[16:1]/8h[16:1],4h[16:1]/8h[16:1],
{32}1,2,3,4,5,6,7,8,{8}5h[16:1]/1h[16:1],5h[16:1]/1h[16:1],6h[16:1]/2h[16:1],6h[16:1]/2h[16:1],7h[16:1]/3h[16:1],7h[16:1]/3h[16:1],
{8}4h[16:1]/8h[16:1],4h[16:1]/8h[16:1],3h[16:1]/7h[16:1],3h[16:1]/7h[16:1],2h[16:1]/6h[16:1],2h[16:1]/6h[16:1],1h[16:1]/5h[16:1],1h[16:1]/5h[16:1],
{8}5h[8:1]/1h[8:1],,,{16}2,4,3,4,1,5,3,5,3,5,
{16}2,6,4,6,4,6,1,5,3,5,3,5,2,6,4,6,
{16}3h[16:1],,3h[16:1],,3h[16:1],,3h[16:1],,2,4,2,4,2,4,2,4,
{4}2b<1<8<7<6>5>4b[4:1],,2-6[8:1],,
{16}7,5,7,5,6,4,6,4,7,5,7,5,6,4,6,4,7,5,7,5,8,4,8,4,7V51[16:3],3,7,3,,,,,
{16}2,8,2,8,1,7,1,7,2,8,2,8,1,7,1,7,2,8,2,8,3,7,3,7,4>1b[8:1],6,4,6,,,,,
{16}2,4,2,4,3,5,3,5,2,4,2,4,3,5,3,5,2,6,2,6,1,7,1,7,2V84[16:3],8,2,8,,,,,
{16}7,5,7,5,6,4,6,4,7,5,7,5,6,4,6,4,7b,,3,2b/4b,,,7/1-5b[8:1],,7b/1bh[8:1],,,,,,,,
{16}2,4,2,4,3,5,3,5,2,4,2,4,3,5,3,5,2,4,2,4,1,5,1,5,2V48[16:3],6,2,6,,,,,
{16}7,1,7,1,8,2,8,2,7,1,7,1,8,2,8,2,7,1,7,1,6,2,6,2,5<8b[8:1],3,5,3,,,,,
{16}7,5,7,5,6,4,6,4,7,5,7,5,6,4,6,4,7,3,7,3,8,2,8,2,7V15[16:3],1,7,1,,,,,
{16}6b<1b[8:1]/2,,,,{32}2,3,4,5,2,3,4,5,{16}6b<1b[8:1]/2,,,,{32}2,3,4,5,2,3,4,5,
{16}2h[8:1]/6,,,,6/2h[8:1],,7,,8bw4b[8:1],,,,,,,,
{16}8>3[8:1],,,,8/6,,7,,8V24[8:1],,,,6,,7,,
{16}8V25[8:1],,,,6,,7,,8<5b[8:1],,,,,,,,
{16}1<6[8:1],,,,3,,2,,1V75[8:1],,,,3,,2,,
{16}1V74[8:1],,,,3,,2,,1>4b[8:1],,,,,,,,
{16}8>3[8:1],,,,8/6,,7,,8V24[8:1],,,,6,,7,,
{16}8V25[8:1],,,,6,,7,,8-4b[8:1],,,,,,,,
{16}2h[8:1],,,,4/7,,3,,2>5[8:1]*-8[8:1],,,,,,,,
{16}7,,6,4,6,,7,,{24}7,8,1,2,3,4,5/1,8,7,6,5,4,
{16}8<5[8:1]/3,,,,8/4h[16:1],,2h[16:1],,8V64[8:1],,,,3h[16:1],,1h[16:1],,
{16}8<4[8:1],,,,3h[16:1],,2h[16:1],,1-5b[8:1],,,,,,,,
{16}1>4[8:1]/6,,,,1/5h[16:1],,7h[16:1],,1V35[8:1],,,,6h[16:1],,8h[16:1],,
{16}1>5[8:1],,,,6h[16:1],,7h[16:1],,8-4b[8:1],,,,,,,,
{16}8<5[8:1]/3,,,,8/4h[16:1],,2h[16:1],,8V64[8:1],,,,3h[16:1],,1h[16:1],,
{16}8<7<6>5>4[8:1],,,,3h[16:1],,2h[16:1],,1-5b[8:1],,,,,,,,
{16}7,,6,4,6,,5/7,,5>2[8:1]/7V51[8:1],,,,,,,,
{16}8,,7/1,,6,4,6,4,7b-1b[8:1]*<4b[8:1],,,,,,,,
{16}2,,2/4,,2/4h[8:1],,2,,2/4,,2/4,,3,,3/5,,
{16}3/5h[8:1],,3,,3/5,,3-5-1[4:1]/5-7[8:1],,3/5,,,,,,,,
{16}8h,,2,,2,,8h,,2,,2,,7h,,1,,1,,7h,,1,,1,,7,6,5,4,1,2,3,4,
{16}7,,7/5,,7/5h[8:1],,7,,7/5,,7/5,,6,,6/4,,
{16}6/4h[8:1],,6,,6/4,,6-4-8b[4:1]/4-2b[8:1],,6/4,,,,,,,,
{16}2,,2/4,,2/4h[8:1],,2,,2/4,,2/4,,3,,3/5,,
{16}4,6,4,6,3,5,3,5,2-8b[8:1],4,2,4,2,,,,
{32}1h[8:1]/7,6,5,4,,,,,8h[8:1]/2,3,4,5,,,,,1h[8:1]/7,6,5,4,,,,,8h[8:1]/2,3,4,5,,,,,
{32}7/1h[8:1],6,5,,,,,,2h[8:1]/8,7,6,,,,,,3-1[16:3]/1,8,7,,,,,,,,,,,,,,
{32}8h[8:1]/2,3,4,5,,,,,1h[8:1]/7,6,5,4,,,,,8h[8:1]/2,3,4,5,,,,,1h[8:1]/7,6,5,4,,,,,
{32}2/8h[8:1],3,4,,,,,,7h[8:1]/1,2,3,,,,,,6V48[16:3]/8,1,2,,,,,,{16},,,,
{16}7x/1>4[8:1],,,,6,,6,,5/7-5-1[16:3],,,,7/4,,3,,
{16}2-4b[8:1],,,,2/6,,6,,5<8[8:1],,,,3/5,,2,,
{16}1h,,2h,,8h,,7h,,3V51[16:3],,,,6,,7,,
{16}8h,,8h,,8h,,8h,,1h/7h,,1h/7h,,1h/7h,,1h/7h,,
{16}1h[8:1]/7h[4:1],,,,{32}1,2,3,4,5,6,7,8,{16}1h,2h,6h/7-5-8[16:3],,4,,3,,
{16}2-6[8:1],,,,6/2,,7,,8-3[8:1]*-5[8:1],,,,,,,,
{16}2h`4h,,2h`4h,,2h`4h,,2h`4h,,2bh`4bh,,,,4,,7,,
{16}8h/5h,,8h/5h,,8h/5h,,8h/5h,,8bh/5bh,,,2b/3b,,,5b/7b,,
{16}2b/1b,,,,{32}8,7,6,5,4,3,2,1,{16}8h,7h,3h/2-8-4[16:3],,5,,6,,
{16}7<4[8:1],,,,3/7,,2,,1-6[8:1]*-4[8:1],,,,,,,,
{16}7h`3h,,7h`3h,,7h`3h,,7h`3h,,7bh`3bh,,,,2,,4,,
{16}3h/5h,,3h/5h,,3h/5h,,3h/5h,,4h,,4h,,4h,6h,4h,6h,
{16}3bh[8:1]/5bh[8:1],,,,4,6,4,6,3b,,2bh/5bh,,1bh/6bh,,,,
{16}7h[8:1],,,,2,8,2,8,3h[8:1]/7V51[8:1],,,,4,,3,,
{16}2h,,2h`8h,,2h`8h,,2h`8h,,2bh`8bh,,,,8,,3,,
{16}4h/7h,,4h/7h,,4h/7h,,4h/7h,,4bh/7bh,,,2b/8b,,,7b/5b,,
{16}2bh[8:1]/1bh[16:1],,,,{32}8,7,6,5,4,3,2,1,{16}8h,7h,3h/2-8-4[16:3],,5,,6,,
{16}7<4[8:1],,,,3/7,,2,,1-6[8:1]*-4[8:1],,,,,,,,
{16}7h,,7h`1h,,7h`1h,,7h`1h,,7bh`1bh,,,,1,,6,,
{16}5h/3h,,5h/3h,,6h/2h,,6h/2h,,{16}1h,7h,1h,7h,{16}8,8,8,8,
{16}7bhx[8:1],,,,{32}2,3,4,5,6,7,8,1,{32}2h,3h,8h,7h,{16}2x-5-3b[16:3],,6,,7,,
{16}8<5b[8:1],,,,4/8,,3,,2-8b[8:1]*>3<4<5b[8:1],,,,,,,,
{16}7bh[4:1],,,,4h[16:1],,3h[16:1],,2-8b[8:1],,,,2/5,,6,,
{16}7h`1h,,7h`1h,,7h`1h,,7h`1h,,8h/2h,,8h/2h,,8<4b[8:1]/2h,,,,
{16}2bhx[8:1],,,,{32}3,2,1,8,7,6,5,4,{32}3h,2h,5h,6h,{16}3x-8-2b[16:3],,7,,6,,
{16}5<8b[8:1],,,,1/5,,2,,3-5-1b[16:3],,,,6,,7,,
{16}8bh[4:1]/2h[8:1],,,,2,,3,,4>1[8:1],,,,4/7,,7,,
{16}2,3,4/6,,8,7,6/4,,1/2,3,4/6,,8/7,6,5/3,,
{16}2>5[8:1],,,,2/6,,7,,8w4b[8:1],,,,8,,,,
{16}2>5[8:1],,,,2/6,,7,,8w4b[8:1],,,,8,,,,
{16}7<4b[8:1],,,,7/3,,2,,1w5[8:1],,,,1,,,,
{16}7<4b[8:1],,,,7/3,,2,,1w5[8:1],,,,1,,,,
{16}2h[16:1],,2h[16:1],,3h[16:1]/5h[16:1],,3h[16:1]/5h[16:1],,4h[16:1]/6h[16:1],,4h[16:1]/6h[16:1],,5h[16:1]/7h[16:1],,5h[16:1]/7h[16:1],,
{16}4h[16:1]/8h[16:1],,4h[16:1]/8h[16:1],,3h[16:1]/7h[16:1],,3h[16:1]/7h[16:1],,2h[16:1]/6h[16:1],,2h[16:1]/6h[16:1],,1h[16:1]/5h[16:1],,1h[16:1]/5h[16:1],,
{16}6h[16:1],2h[16:1],6h[16:1],2h[16:1],7h[16:1],1h[16:1],7h[16:1],1h[16:1],8h,8h,8h,8h,{32}8h,7h,6h,5h,4h,3h,2h,1h,
{16}8<5[8:1],,,,8/4,,3,,2-5-1[16:3],,,,2/6,,,,
{32}2bv1-3-8-2>3<4<5<6v5-7-4-6b[1:7],6bv5-7-4-6<7>8>1>2v1-3-8-2[1:7],,,,,,,{4},,,
{2},,,,,,,,,,,,,,
{2}3h[1:2],,,,,,,,
{2}6h[1:2],,,,,,
{2}5w1[2:1],,
{8}3b,4,6,5,4,3,5,6,
{8}3,4,5,6,3,6,5,4,
{8}6,5,3,4,5,6,4,3,
{8}6,5,4,3,6,3,4,5,
{8}3h,4h,6h,5h,4h,3h,5h,6h,
{8}3h,4h,5h,6h,3h,6h,5h,4h,
{8}6h,5h,3h,4h,5h,6h,4h,3h,
{8}6h,5h,4h,3h,6h,3h,4h,5h,
{8}6h[8:1],4h[8:1],5h[8:1],3h[8:1],5h[8:1],4h[8:1],6h[8:1],3h[8:1],
{8}5h[8:1],4h[8:1],6h[8:1],3h[8:1],6h[8:1],4h[8:1],5h[8:1],3h[8:1],
{8}6h[8:1],4h[8:1],6h[8:1],3h[8:1],5h[8:1],3h[8:1],6h,7h,
{8}3h[8:1],5h[8:1],3h[8:1],6h[8:1],4h[8:1],6h[8:1],3h,2h,
{8}1h[8:1],7h,6h,5h,{32}3h[8:1],4h[8:1],,,,,,,7h[8:1],6h[8:1],,,,,,,
{32}1h[8:1],2h[8:1],,,{8},5,6,7<5[8:1],,4,3,
{8}2h,4h,3h,5h,4h,6h,5h,7h,
{8}4h[16:1],8h[16:1],3h[16:1],7h[16:1],2h[8:1],6hh[8:1],1hh[8:1],5hh[8:1],
{32}2b,1,8,7,6,5,4,3,{16}2h[8:1]/5h,,6h,,7<4[8:1],1,,1,7,,1,2,
{16}3<6[4:1],,,,6<1[4:1],,,,1>4b[16:3]*V35b[16:3],,,,,,,,
{16}7V51[4:1],,,,3/7,,4,,5>2[8:1],,,,6,,7,,
{16}8>3[4:1],,,,3<6[4:1],,,,6<7>8>1b[16:3],,,,,,,,
{32}2x,3x,4x,5x,6,7,8,1,{16}2h[8:1]/5h,,6h,,7<4[8:1],1,,1,7,,1,2,
{16}3>8[4:1],,,,8<5[4:1],,,,5>4>3>2b[16:3],,,,,,,,
{32}7x,6x,5x,4x,3,2,1,8,{16}7h[8:1]/4h,,3h,,2>5[8:1],8,,8,2,,8,7,
{16}6V47[4:1],4,,4,6,,,,3,,2,,1<6[8:1],,,,
{16}2V48[4:1],,,,5/2,,6,,7V15[4:1],,,,7/1,,2,,
{16}3>8[4:1],,,,8<5[4:1],,,,5>2b[8:1],,,,,,,,
{16}7V51[4:1],,,,4/7,,3,,2V84[4:1],,,,2/5,,6,,
{16}7<4[4:1],,,,4>1[4:1],,,,1<6b[8:1],,,,,,,,
{16}5xpp1[1:1],,,,5/4,,3,,2>5[8:1],,,,,,,,
{16}1-3b[8:1],,,,,,,,4>1b[8:1],,,,,,,,
{16}8xpp4b[2:1],,,,8/7,,6,,5<8[8:1],,,,,,,,
{16}7h,,6h,,5h,,3h,,2h,,3h,,5h,,6h,,
{4}7bh[1:2]/3bh[1:3],,,,
{1},,,
{16}2/4,,2,,5/3,,5,,4/6,,4,,5/7,,7,,
{16}4/8,,4,,3/7,,7,,2/6,,2,,1/5,,5,,
{16}2h[16:1]/6h[16:1],,2h[16:1]/6h[16:1],,1h[16:1]/7h[16:1],,1h[16:1]/7h[16:1],,8h,8h,8h,8h,8h,8h,8h,8h,
{16}8pp6b[2:1],,,,3,,4,,5>4>3>2b[8:1],,,,,,,,
{16}1bhx[8:1]/7bhx[8:1],,,,2,3,4/6h,,8h[8:1],,,,7,6,5/2h,,
{16}3h[8:1],,,,8,7,6/4h,,2-5[8:1]/5-1[8:1],,,,,,,,
{16}8h[8:1]/4h[8:1],,,,7,6,5/3h,,1h[8:1],,,,2,3,4/7h,,
{16}6h[8:1],,,,1,2,3/5h,,7-4[8:1]/4-8[8:1],,,,,,,,
{16}1h[8:1]/7h[8:1],,,,2,3,4/6h,,8h[8:1],,,,7,6,5/2h,,
{16}2h[8:1],,,,7,6,5/1h,,3V15[4:1]/5<8[8:1],,,,,,,,
{16}7x,4x,7x,4x,6h,3h,6h,3h,5,2,5,2,5h,2h,5h,2h,
{16}5V73[4:1],,,,3/5,,2,,1>6b[4:1],,,,,,,,
{16}8b,,8h[16:1],,2,3,4/7h,,6,,6h[16:1],,7,6,5/2h,,
{16}3,,3h[16:1],,8,7,6/4h,,2>5[8:1]/5-1[8:1],,,,,,,,
{16}3,,3h[16:1],,7,6,5/3h,,7,,7h[8:1],,2,3,4/8h,,
{16}7,,7h[16:1],,1,2,3/6h,,7<4[8:1]/4-8[8:1],,,,,,,,
{16}1h[8:1]/7h[8:1],,,,2,3,4/6h,,8h[8:1],,,,7,6,5/2h,,
{16}3h[8:1],,,,8,7,6/4h,,2V48[4:1]/5-7[8:1],,,,,,,,
{16}6x,1x,6x,1x,7h,2h,7h,2h,8x,3x,8x,3x,8h,3h,8h,3h,
{16}8V62[4:1],,,,2/8,,3,,4<2b[16:3],,,,,,,,
{16}6hx[4:1],,3,,4,,5,,6-8[8:1],,4,,6,,3,,
{16}2>5[8:1],,7-1[8:1],,2,,7,,3x,,4h[4:1],,6h[8:1],,,,
{16}7h[4:1],,5x,,4x,,3x,,2-5[8:1],,8-6[8:1],,2,,8,,
{16}4,,3,,2/7,,6,,5<8[8:1],,4,,3,,2,,
{16}7hx[8:1]/1h,,3,,4/5,,6,,7,,3,,4/5,,6,,
{16}7h,,6,,3/5,,2,,1h,,6,,3/5,,2,,
{16}2h,3,4,5,1h,2,3,4,1h,2,4,5,2h,3,5,6,
{16}7h[4:1],,4,,3,,2,,1>4[8:1],,8h,,7h/1,,6h,,
{16}3hx[4:1],,6,,5,,4,,3-1[8:1],,5,,3,,6,,
{16}7<4[8:1],,2-8[8:1],,7,,2,,6hx[8:1],,4hx[8:1],,5hx[8:1],,3h,,
{16}2h[4:1],,4,,5,,6,,7-4[8:1],,1-3[8:1],,7,,1,,
{16}5x,,6x,,7/2,,3,,4>1[8:1],,5,,6,,7,,
{16}2hx[8:1]/8h,,6,,5/4,,3,,2,,6,,5/4,,3,,
{16}2h,,3,,6/4,,7,,8h,,3,,6/4,,7,,
{24}8h,7,6,5,4,3,8h,7,6,5,4,3,8h,7,6,4h,3,2,7h,6,5,3h,2,1,
{16}7h[4:1],,2,,3,,4,,5>2[8:1],,6h,,7h/5,,8h,,
{16}1bh[8:1],,7,,7,,2h[8:1],,8,,8,,3,7,3,7,
{16}4h[8:1],,6,,6,,3h[8:1],,5,,5,,6,4,6,4,
{16}3bhx[8:1],,5,,5,,4h[8:1],,6,,6,,7,3,7,3,
{16}8h[8:1],,2,,2,,7h[8:1],,3,,3,,4,6,4,6,
{16}3b/7b,,3/7h[16:3],,3h[16:1],,2/6,,2h[16:3]/6,,6h[16:1],,1,5,1,5,
{16}6b/2b,,6/2h[16:3],,6h[16:1],,7/3,,7h[16:3]/3,,3h[16:1],,8,4,8,4,
{16}8bh[8:1],,3,8bh[8:1]/4,,3,8bh[16:1]/4,,7bh[16:1]/3b,,2bh[8:1],,6,5/2bh[8:1],,6,
{16}5/1b,,2,,3/5,,6,,7w3[8:1],,,,,,,,
{16}8b/6b,,,,1h,7h,1h,7h,2h,8h,2h,8h,3h,1h,3h,1h,
{32}8x,7,6,5,8,7,6,5,{16}1h,4h,1h,4h,8h,3h,8h,3h,7h,2h,7h,2h,
{16}6bh[8:1],,,,{24}2,3,4,5/2,,,7,6,5,4/7,,,{32}1,2,3,4,5/1,,,,
{32}7,6,5,4,3,2,1,8,{16}7h[16:1]/3h[16:1],,7h[16:1]/3h[16:1],,6h[16:1]/2h[16:1],,6h[16:1]/2h[16:1],,1-5b[8:1]/5h[8:1],,,,
{16}7b,,,,{16}8h,3h,8h,3h,7h,2h,7h,2h,6h,1h,6h,1h,
{32}2x,3,4,5,2,3,4,5,{16}1h,6h,1h,6h,2h,7h,2h,7h,3h,8h,3h,8h,
{16}2bh[8:1],,,,{24}7,6,5,4/7,,,2,3,4,5/2,,,{32}8,7,6,5,4/8,,,,
{16}1>4[8:1],,,,6V48[16:3]/1,,,,3-1b[8:1],,,,3bx,,,,
{32}8b,7,6,5,4,3,2,1,{16}8h,2h,8h,2h,7h,1h,7h,1h,6h,8h,6h,8h,
{32}1x,2,3,4,5,6,7,8,{16}1h,6h,1h,6h,2h,7h,2h,7h,3h,8h,3h,8h,
{16}7h[8:1]/4h[8:1],,,,{24}2,3,4,5/1,,,7,6,5,4/8,,,{32}1,2,3,4,5/8,,,,
{32}7,6,5,4,3,2,1,8,{16}7h[16:1]`3h[16:1],,7h[16:1]`3h[16:1],,6h[16:1]`2h[16:1],,6h[16:1]`2h[16:1],,1h[8:1]`5h[8:1],,,,
{32}1b,2,3,4,5,6,7,8,{16}1h,6h,1h,6h,2h,7h,2h,7h,3h,8h,3h,8h,
{32}7x,6,5,4,3,2,1,8,{16}7h,3h,7h,3h,6h,2h,6h,2h,5h,1h,5h,1h,
{16}5b[8:1],,,,{24}7,6,5,4/7b,,,2,3,4,5/2b,,,8,7,6,5/8b,,,
{32}2v5[8:1],3,4,5,6-1[8:1],7,8,1,{16}2V46b[4:1]*>8b[16:5],,,,2bhx[8:1],,,,,,,,
{16}1<4[4:1],,,,3,,2,,1-4-2[16:3],,,,1/5<8[8:1],,,,
{16}5,,,,1,,2>5[8:1]/8,,,,2/8V62[16:3],,,,4,,
{16}3V52[4:1],,,,3/6,,7,,8<5[8:1]*-3[8:1],,,,8-4[8:1],,,,
{16}8/4-8[8:1],,,,3,,2>3<4<5[8:1],,,,5,,6,,7,,
{16}8V26[4:1],,,,5/8,,4,,3-5-2-6[16:5],,,,6,,7,,
{16}8<4[8:1],,,,8/1,,2v5[8:1],,,,5,,6,,7,,
{16}8<5[8:1],,1,,2,,3>2<1<8b[8:1],,4,,5,,6h[8:1],,,,
{16}4,6,4,6,3,5,3,5,2,4,2,4,1,3,1,3,
{16}1>4[8:1],,,,1/7,,6,,5<8[8:1],,,,5-3[8:1]/3h[8:1],,,,
{16}7qq2b[2:1],,,,2,,2h[8:1],,,,1,,1>4[8:1],,,,
{16}5<8[8:1],,,,5/3,,2,,1>4[8:1],,,,1-7[8:1]/7h[8:1],,,,
{16}3qq6b[2:1],,,,6,,6h[8:1],,,,7,,7<4[8:1],,,,
{16}7,,,,7-3[8:1]/2-8[8:1],,1,,2-4-1[4:1]/7,,,,5,,6,,
{16}7V51[4:1],,2,,3,,4,,3h[4:1],,8,,7,,6,,
{16}5/4-1[8:1],,,,5-7-4[4:1]/4-8[8:1],,6,,5/4,,,,1,,2,,
{16}3h[4:1],,,,5,,6,,7,,8h[8:1],,{12}3,2,1,
{16}8/7<4[4:1],,,,4>1[4:1],,,,1<5[4:1],,,,5,4,3,2,
{16}1>4b[4:1],,,,4<7b[4:1],,,,7>3b[4:1],,,,3h,,5h,,
{16}7V53[4:1],,,,3>1<7[4:1],,,,7<5p1[4:1],,,,2h,,3h,,
{16}4>1[8:1],,,,4/6,,7,,8h,2h,8h,2h,7h,3h,7h,3h,
{16}6V84[4:1],,,,4/6,,3,,2>5[8:1],,,,2/6,,7,,
{16}8>3[8:1],,7,,6,,5<8[8:1],,4,,3,,2h[8:1],,,,
{16}7V51[4:1],,,,1/7,,2,,3>8[8:1],,,,3/7,,6,,
{16}5>2[8:1],,6,,7,,8<5[8:1],,1,,2,,3h[8:1],,,,
{16}7b<4b[8:1],,,,7/3-1[8:1],,,,7-3[8:1]/3-8[8:1],,,,7/3,,,,
{16}6-8[8:1],,,,6/2-5[8:1],,,,2/6,,,,2-8[8:1]/7-3[8:1],,3/8,,
{16}2b>5b[8:1]/7b,,,,2/6<1[8:1],,,,2-5[8:1]/6-2[8:1],,,,2/6,,,,
{16}7-5[8:1]/1,,,,1-3[8:1]/7-3[8:1],,,,7-5-8b[4:1]/1,,,,,,,,
{16}2bh[4:1],,4,,4,,1h[4:1],,5,,5,,3,,6,5,4b/7b,,7,,7,,3/6,,3,,3,,2,5,2,5,
{16}1bh[8:1],,6,1bh[8:1]`5,,6,1bh[16:1]`5,,2bh[16:1]/6b,,7bh[8:1],,3,4`7bh[8:1],,3,
{16}4`8b,,7,,6/4,,3,,2-6b[8:1],,,,2w6[8:1],,,,
{32}2pp7p2>5b[1:15],2?qq5q2<5[1:15],,,,,,,{4},,,
{1},,,,,,,,,,,,,,,
{1}2b/8>6[1:4],,,,
{1}6<8q4[1:4],,2h,,
{1}5>4>3>2p6[1:4],,2h[1:1],,
{1}5p1<8<7<6[2:7],,5>2b[2:3],,
{1}1-3-5-7[1:4]/5b,,,,
{1}8V24[1:3]*>3<4<5<6[1:4],,1h[1:1],,
{1}7V51[1:2],,2V84[1:2],,
{1}8<7<6>5>4>3>2<1b[2:7],,7-5-3-1b[2:3],,
{1}8b,,,,,,,,
{16}6h[4:1]`3b,,,,,,4,5,3h[4:1],,,,5h[2:1],,,,
{16}3h[4:1],,,,,,5,4,6h[4:1],,,,4h[2:1],,,,
{16}6h[4:1],,,,,,4,5,3h[4:1],,,,5h[2:1],,,,
{16}3h[4:1],,,,,,6h[8:1],,4h[4:1],,,,5h[8:3],,,,
{16}3h[4:1],,,,,,6,5,4h[4:1],,,,3h[4:1],,,,
{16}6h[4:1],,,,,,3,4,5h[4:1],,,,6h[4:1],,,,
{16}3h[4:1],,,,,,6,6,4h[4:1],,,,3h[4:1],,,,
{16}6h[4:1],,,,,,3h[8:1],,5h[4:1],,,,4h[8:1],,5,,
{16}6h[4:1],,,,,,6h[4:1],,4h[8:1],,,,3h[4:1],,,,
{16}6h[4:1],,,,,,6h[4:1],,4h[8:1],,,,3h[4:1],,,,
{16}6h[4:1],,,,,,6h[4:1],,4h[8:1],,,,3h[4:1],,,,
{16}6h[4:1],,,,,,6h[4:1],,3h[8:1],,,,4h[8:1],,,,
{16}5h[4:1],,,,,,4h[8:1],,6h[8:3],,,,,,3h[8:1],,
{16}5h[8:3],,,,,,4h[8:1],,6h[8:3],,,,,,4,,
{16}3h[8:3],,,,4,,5,,6h[8:3],,,,5,,4,,
{16}3h[8:3],,,,4,,5,,6h[8:3],,5,,4,,3,,
{16}2/5h[8:1],,2,,2/5h[8:1],,3,4,2/5h[8:1],,2,,2/5h[8:1],,3,4,
{16}2/5h[8:1],,2,,2/5h[8:1],,3,4,2>5[8:1]/5,,,,2/5,,6,,
{16}7,,7,,7/4h[8:1],,6,5,7/4h[8:1],,7,,7/4h[8:1],,6,5,
{16}7/4h[8:1],,7,,7/4h[8:1],,6,5,7<4[8:1]/4,,,,7/3,,2,,
{16}1,,1,,1/5h[8:1],,2,4,1/5h[8:1],,1,,2h[8:1]/6,,6,,
{16}3/7h[8:1],,3,,7/3h[8:1],,6,4,3/7V58[8:1],,,,7/4,,3,,
{16}2,,2,,2/6,,{32}2h,3,6h,5,{16}1>4b[8:1],,1,,1/6-1b[8:1],,6,,
{16}3,,3,,4/7,,4,6,{16}3h[8:1],,6,,7b,,,,
{16}1>4[8:1],,1,,1/7,,7,6,5-8-6[16:3],,,,3,,2,,
{16}1h[8:1],,,,{32}1,2,3,4,1,2,3,4,{16}5V31[8:1]/1,,,,5/6,,7,,
{16}8<7-5b[8:1],,8,,8/2,,2,3,4-1>3b[16:3],,,,6,,7,,
{16}8h[8:1],,,,{32}8,7,6,5,8,7,6,5,{16}4<5<6<7b[8:1]/8,,,,4/3,,2,,
{16}1,7,1,7,{32}2,3,6,5,2,3,6,5,{16}1,7,1,7,{32}2,3,6,5,3,4,7,6,
{16}2,8,2,8,{32}3,4,7,6,3,4,7,6,2,3,8,7,2,3,8,7,1,1x,1,1x,1,1x,1,1x-5[8:13],
{16}2x,3x,5x,6x,3x,4x,6x,7x,2hx[8:1],,,,7x,,8x,,1hx[4:1],,,,3x,,2x,,1x-5b[8:1],,,,,,,,
{16}2/8h[8:1],,2,,7-3[8:1],,2,2,1-4[8:1]*-6[8:1],,,,,,,,
{16}3/7h[8:1],,3,,6<1[8:1],,3,3,4-2[8:1]*-8[8:1],,,,,,,,
{16}1/7h[8:1],,1,,2>5[8:1],,7,7,8p4[8:1]*v3[8:1],,,,,,,,
{16}2>3<4<5[8:1],,,,2/5,,6,,7V58[16:3],,,,7/4h[8:1],,,,
{16}1h[8:1],,7,,2-6b[8:1]/8,,1,1,8-5[8:1]*-3[8:1],,,,,,,,
{16}2h[8:1],,6,,7/3>8b[8:1],,4,4,5-7[8:1]*-1[8:1],,,,,,,,
{16}2h[8:1],,8,,7<4b[8:1]/2,,8,8,1q5[8:1]*v6[8:1],,,,,,,,
{16}7<6>5>4b[8:1],,,,7/4,,3,,2V41[16:3],,,,2/6,,7,,
{16}8h[8:1],,,,6/8-4[8:1],,7,,8w4[8:1],,,,,,,,
{16}2h[8:1],,,,6/8-4[8:1],,7,,8w4[8:1],,,,,,,,
{16}2h[8:1],,,,6/8-4b[8:1],,7,,8w4b[8:1],,,,,,,,
{16}7<4[8:1]/1h[8:1],,,,7/4,,3,,2-4-8[16:3]*-5-7[16:3],,,,,,,,
{16}1>4[8:1],,,,1/7,,8,,1<4b[4:1],,,,3/1,,2,,
{16}1>6[4:1],,,,6/1,,7,,8-4-8b[4:1],,,,8,,,,
{16}2>5[8:1],,,,2/1,,8,,7V51[16:3],,,,7/4,,3,,
{16}2>5[4:1],,,,5<7>1q5b[16:7],,,,1p5[16:3],,,,,,,,
{16}8h[8:1],,,,{32}7/1,6/2,5/3,4,,,,,{16}2v5[4:1]/5,,,,5V31[16:3]/2,,,,
{16}7-3-7[5:1],,,,8,,1,,2>5[8:1]*-8[8:1],,,,2,,,,
{16}7-1-6-2[16:5],,,,5,,4,,3V52b[4:1],,,,3/7V58[8:1],,,,
{16}7,,,,2>5[8:1],,1,,2-8b[8:1]/7-3b[8:1],,,,2/7,,,,
{16}6h[8:1],,,,1<6[8:1],,2,,1V35[8:1]*-4[8:1],,,,1,,,,
{16}7h[8:1],,,,2-8[8:1],,3,,7<4[8:1]/2,,,,2/7,,,,
{16}3h[8:1],,,,8>3[8:1],,7,,8V64[8:1]*-5[8:1],,,,8,,,,
{16}1V35[4:1],,,,5-2[8:1],,6,,7-3-7b[4:1],,,,2x,,3x,,
{16}4<7b[8:1],,,,4/1-3[8:1]*-4[8:1],,2,,1-6[8:1]*-7[8:1],,,,1,,,,
{16}4<7b[8:1],,,,4/1-3[8:1]*-4[8:1],,2,,1-6[8:1]*-7[8:1],,,,1,,,,
{16}4<7b[8:1],,,,4/1-3[8:1]*-4[8:1],,2,,1-6[8:1]*-7[8:1],,,,1,,,,
{16}4<7b[8:1],,,,4/1>4[8:1],,2,,1p5[8:1],,,,1,,,,
{16}2h[8:1],,4,,4,,2h[8:1],,4,,4,,3,5,3,5,
{16}6h[8:1],,4,,4,,6h[8:1],,4,,4,,3,7,3,7,
{16}8bh[8:1],,3,8bh[8:1]`4,,3,8bh[16:1]`4,,7bh[16:1]/3b,,2bh[8:1],,6,5`2bh[8:1],,6,
{16}5`1b,,2,,3/5,,6,,1w5[8:1]/7,,,,,,,,
{16}8h[8:1],,,,{32}7/1,6/2,5/3,4,,,,,{16}6V47[8:1],,,,3h,,,,
{16}1>4[8:1],,,,7-3[8:1],,8,,7-5[8:1]/1-5[8:1],,,,,,,,
{16}2>5[8:1],,,,6v1[8:1],,7,,6<8[8:1]/3V52[8:1],,,,,,,,
{16}1V74[4:1],,,,1/4,,3,,2-6-2[4:1],,,,6x,,7,,
{16}8-6>5b[8:1],,,,2-4[8:1]/8,,3,,2-6[8:1]/7-1[8:1],,,,,,,,
{16}8<7<6>5b[8:1],,,,8/2-6[8:1],,1,,2-4[8:1]/8-4[8:1],,,,,,,,
{16}7<6-4b[8:1],,,,7/3v8[8:1],,2,,3>1[8:1]/6V47[8:1],,,,,,,,
{16}8V25[4:1],,,,8/5,,6,,7<4b[8:1],,,,3x,,2,,
{16}4x<7b[8:1],,,,4/1-3[8:1]*-4[8:1],,2,,1-6[8:1]*-7[8:1],,,,1,,,,
{16}4<7b[8:1],,,,4/1-3[8:1]*-4[8:1],,2,,1-6[8:1]*-7[8:1],,,,1,,,,
{16}4<7b[8:1],,,,4/1-3[8:1]*>4[8:1],,2,,1<6[8:1]*-7[8:1],,,,1,,,,
{16}4<7b[8:1],,,,4/1>4[8:1],,2,,1p5[8:1],,,,1,,,,
{16}1>4[8:1],,,,1/7,,8,,1<4b[4:1],,,,3/1,,2,,
{16}1>6[4:1],,,,6/1,,7,,8-4-8b[4:1],,,,8,,,,
{16}2>5[8:1],,,,2/1,,8,,7V51[16:3],,,,7/4,,3,,
{16}2>5[4:1],,,,5q1V35[16:7],,,,1V75b[16:3],,,,,,,,
{16}8hx[8:1],,,,{32}7/1,6/2,5/3,4,,,,,{16}6V47[8:1],,,,6/3h[8:1],,,,
{16}2h[8:1],,,,1>4[8:1],7,1,7,1-5[8:1]*-6[8:1],,,,1,,,,
{16}4,,3,,2>5[8:1],8,2,8,2-8[8:1]*-7[8:1],,,,2,,,,
{16}2V41[8:1]/5h,,,,5,,6,,7V51[8:1]*-4-2[8:1],,,,,,,,
{16}8h[8:1],,,,8<5[8:1],2,8,2,8-4[8:1]*-3[8:1],,,,8,,,,
{16}5,,6,,7<4[8:1],1,7,1,7-1[8:1]*-2[8:1],,,,7,,,,
{16}6,,7,,8<5[8:1],2,8,2,8-4[8:1]*-3[8:1],,,,8,,,,
{16}7V58[8:1],,,,4,,3,,2V48[8:1]*-5-7[8:1],,,,,,,,
{16}7hx[8:1],,,,3/1-5[8:1],,2,,1w5[8:1],,,,,,,,
{16}7h[8:1],,,,3/1-5[8:1],,2,,1w5[8:1],,,,,,,,
{16}7h[8:1],,,,3/1-5b[8:1],,2,,1w5b[8:1],,,,,,,,
{16}2>5[8:1]/8h[8:1],,,,2/5,,6,,7-5-1[16:3]*-4-2[16:3],,,,,,,,
{16}7h[8:1],,5,,5,,7h[8:1],,5,,5,,6,4,6,4,
{16}3h[8:1],,5,,5,,3h[8:1],,5,,5,,6,2,6,2,
{16}1bh[8:1],,6,1bh[8:1]/5,,6,1bh[16:1]/5,,2bh[16:1]/6b,,7bh[8:1],,3,4/7bh[8:1],,3,
{16}4/8b,,7,,6/4,,3,,8w4[8:1]/2,,,,,,,,
{16}1bh[4:1],,,,,,6,5,7h[8:1],,,,1h[8:1],,,,
{16}7bh[4:1]/3bh[8:1],,,,,,3,4,2/5,,2,,3/6,,6,,
{16}7bh[4:1],,,,,,3,4,2h[8:1],,,,8h[8:1],,,,
{16}2bh[4:1]/6bh[8:1],,,,,,6,5,7/4,,7,,6/3,,3,,
{16}7/5,,7,,7,,6/4,,4,,4,,3,5,3,5,
{16}2/4,,2,,2,,3/5,,5,,5,,4,6,4,6,
{16}3bh[8:1],,6,2bh[8:1]/5,,6,1bh[16:1]/5,,2bh[16:1]/6b,,7bh[8:1],,3,4/8bh[8:1],,3,
{16}2/8,,3,,4/5,,6,,1w5b[8:1]/7,,,,,,,,
{16}2h[16:1],,2h[16:1],,1h[16:1],,1h[16:1],,8h[16:1],,8h[16:1],,{32}1,2,3,4,1,2,3,4,
{16}5/1b,,,,3h[16:1],,2h[16:1],,{32}8,7,6,5,8,7,6,5,1,2,3,4,1,2,3,4,
{16}5/1b,,6,,7/4,,3,,2h[16:1],,2h[16:1],,{32}2,3,4,5,1,2,3,4,
{16}1b/5,,,,6,,7,,{32}7,6,5,4,7,6,5,4,8,7,6,5,8,7,6,5,
{16}8b/4b,,7,,6/4,,3,,2/8,,3,,4/5,,6,,
{16}7/1,,2,,3/5,,6,,7/1,,6,,2h[8:1]/5h[8:1],,,,
{16}1/7,,3,2b/4b,,,6b/8b,,,,1b/2b,,,,6b/8b,,
{16}2h[2:1]/4h[8:1],,,4h[8:1],,,4h[16:1],,4,5,6,7,4/8h[8:1],3,2,1,
{16}7h[16:1],,7h[16:1],,8h[16:1],,8h[16:1],,1h[16:1],,1h[16:1],,{32}8,7,6,5,8,7,6,5,
{16}4/8b,,,,6h[16:1],,7h[16:1],,{32}1,2,3,4,1,2,3,4,8,7,6,5,8,7,6,5,
{16}4/8b,,3,,2/5,,6,,7h[16:1],,7h[16:1],,{32}7,6,5,4,8,7,6,5,
{16}8b/4,,,,3,,2,,{32}2,3,4,5,2,3,4,5,1,2,3,4,1,2,3,4,
{16}1b/5b,,2,,3/5,,6,,7/1,,6,,5/4,,3,,
{16}2/8,,7,,6/4,,3,,2/8,,3,,7h[8:1]/4h[8:1],,,,
{16}2h[8:1]/8h[16:3],,,,{32}3,4,7,6,3,4,7,6,{16}2h[8:1]/8h[16:3],,,,{32}3,4,7,6,3,4,7,6,
{16}2b/8b,,,6,5b/7b,,2b,,2bh[4:1],,,,,,,,
{16}2h[8:1]`8h[16:3],,,,{32}3,4,7,6,3,4,7,6,{16}2h[8:1]`8h[16:3],,,,{32}3,4,7,6,3,4,7,6,
{16}2b/8b,,,6,5b/7b,,1b/2b,,1bh[4:1]/2bh[4:1],,,,,,,,
{16}2h[8:1]`8h[16:3],,,,{32}3,4,7,6,3,4,7,6,{16}2h[8:1]`8h[16:3],,,,{32}3,4,7,6,3,4,7,6,
{16}2b/8b,,,6,5b/7b,,8b/2b,,8bh[4:1]/2bh[4:1],,,,,,,,
{16}1h[8:1]`7h[16:3],,,,{32}2,3,6,5,2,3,6,5,{16}1h[8:1]`7h[16:3],,,,{32}2,3,6,5,2,3,6,5,
{16}1b/7b,,,5,4b/6b,,7b/1b,,{32}1b,2,3,4,5,6,7,8,1,2,3,4,5,6,7,8,
{16}1>2>3<4b[8:1]/Chf[4:1],,,,5h[16:1],,7h[16:1],,1V35b[8:1],,,,6h[16:1],,8h[16:1],,
{16}1>2>3<4<5b[8:1],,,,6h[16:1],,7h[16:1],,8-4b[8:1],,,,,,,,
{16}8<5b[8:1]/3,,,,8/4h[16:1],,2h[16:1],,8V64b[8:1],,,,3h[16:1],,1h[16:1],,
{16}8<4b[8:1],,,,3h[16:1],,2h[16:1],,1-5b[8:1],,,,,,,,
{16}1>2>3<4b[8:1],,,,5h[16:1],,7h[16:1],,1V35b[8:1],,,,6h[16:1],,8h[16:1],,
{16}1>2>3<4<5b[8:1],,,,6h[16:1],,7h[16:1],,8-4b[8:1],,,,,,,,
{16}2b,,3b,5b,3b,,4b/2b,,4b<7b[8:1]/2bV48b[8:1],,,,,,,,
{16}1b,,2b/8b,,3b,5b,3b,5b,1b,2b,3b,4b,8b,7b,6b,5b,
{16}1>2>3<4b[8:1],,,,5h[16:1],,7h[16:1],,1V35b[8:1],,,,6h[16:1],,8h[16:1],,
{16}1>2>3<4<5b[8:1],,,,6h[16:1],,7h[16:1],,8-4b[8:1],,,,,,,,
{16}8<5b[8:1]/3,,,,8/4h[16:1],,2h[16:1],,8V64b[8:1],,,,3h[16:1],,1h[16:1],,
{16}8<4b[8:1],,,,3h[16:1],,2h[16:1],,1-5b[8:1],,,,,,,,
{16}8<7<6>5b[8:1],,,,4h[16:1],,2h[16:1],,8V64b[8:1],,,,3h[16:1],,1h[16:1],,
{16}8<7<6>5>4b[8:1],,,,3h[16:1],,2h[16:1],,1-5b[8:1],,,,,,,,
{16}7b,,6b,4b,6b,,5b/7b,,5b>2b[8:1]/7bV51b[8:1],,,,,,,,
{16}8b,,7b/1b,,6b,4b,6b,4b,8b,7b,6b,5b,1b,2b,3b,4b,
{32}7,6,5,4,3,2,1,8,{16}7h[16:1],,,,7,4,7,4,7,4,6,3,
{16}7,4,7,4,7,4,7,4,7,4,7h[8:1],4h[8:1],,,,,
{16}2,5,2,5,2,5,2,5,2,5,2,5,2,5,2,5,
{16}1,5,1,5,1,5,1,5,1,5,1,5,{32}1,2,3,4,5,6,7,8,
{16}1>2>3<4b[8:1],,,,5h[16:1],,7h[16:1],,1V35b[8:1],,,,6h[16:1],,8h[16:1],,
{16}1>2>3<4<5b[8:1],,,,6h[16:1],,7h[16:1],,8-4b[8:1],,,,,,,,
{16}2b,,3b,5b,3b,,4b/2b,,4b<7b[8:1]/2bV84b[8:1],,,,,,,,
{16}8b,,7b/5b,,6b,4b,6b,4b,8b,7b,6b,5b,1b,2b,3b,4b,
{32}7,6,5,4,3,2,1,8,{16}7h[16:1],,,,7,4,7,4,7,4,6,3,
{16}7,4,7,4,7,4,7,4,7,4,7h[8:1],4h[8:1],,,,,
{16}2,5,2,5,2,5,2,5,2,5,2,5,2,5,2,5,
{16}1,5,1,5,1,5,1,5,1,5,1,5,{32}1,2,3,4,5,6,7,8,
{16}1h[16:1],5h[16:1],1h[16:1],5h[16:1],1h[16:1],5h[16:1],1h[16:1],5h[16:1],2h[16:1],6h[16:1],2h[16:1],6h[16:1],2h[16:1],6h[16:1],2h[16:1],6h[16:1],3h[16:1],7h[16:1],3h[16:1],7h[16:1],3h[16:1],7h[16:1],3h[16:1],7h[16:1],2h[16:1],6h[16:1],2h[16:1],6h[16:1],2h[16:1],6h[16:1],2h[16:1],6h[16:1],
{16}1b,,2b,6b,2b,,5b/2b,,4b<7b[8:1]/2bV84b[8:1],,,,,,,,
{16}8b,,7b/5b,,6b,4b,6b,4b,8b,7b,6b,5b,1b,2b,3b,4b,
{16}7<4[8:1],8,7,8,7,,2v5[8:1],1,2,1,2,,8<5[8:1],3,8,3,
{16}8,,2>5[8:1],4,2,4,2,,7,6,7,6h[8:1],7h[16:1],,,,
{16}2>5[8:1],1,2,1,2,,7v4[8:1],8,7,8,7,,1>4[8:1],6,1,6,
{16}1,,7<4[8:1],5,7,5,7,,2,3,2,3h[8:1],2h[16:1],,,,
{16}1,6,{32}2,3,5,4,2,3,5,4,{16}1,6,{32}2,3,5,4,2,3,5,4,{16}2,7,{32}3,4,6,5,3,4,6,5,{16}2,7,{32}3,4,6,5,3,4,6,5,{16}3,8,{32}4,5,7,6,4h[16:1],5,7h[16:1],6,,,,,
{32}1,2,3,4,1,2,3,4,1b/5,,,,8,7,6,5,8,7,6,5,4/8b,,,,2,3,4,5,2,3,4,5,1b/6,,,,7,6,5,4,7,6,5,4,3/8b,,,,
{32}8,7,6,5,4,3,2,1,8-4b[8:1],7,6,5,4,3,2,1,
{16}8bxqq4[1:4]*pp4b[1:8],
