&title=(no)scope
&artist=ariiol
&first=0
&des=Kinhaku
&lv_5=14
&inote_5=(135)
{1},
{8}1bs5[8:5]*>1^2^3^4^5^6^7^8^1^2^3^4[8:22]/Cf,,,,,,,,,,,,,,,,,,,,,,,,
{24}8x,1x,2x,3x,4x,5x,
{24}1x,2x,3x,4x,5x,6x,
{24}2x,3x,4x,5x,6x,7x,
{24}3x/8x,4x,5x,6x,7x,8x,
{8}1-3-8-4[8:4]/5x,,1/5h[1:2],,,,,,,,C,,,,C,,,,C,,,2,7,,4x-8[8:1]/5x-1[8:1],,,,,,
{8}36,,1b>4[8:6]/8b,,,
{16}5,,,,7,,,7,,,8^5[8:6],,,,,,,,,,
{16}4,,,4,,,3^8[8:6],,,,,,5,,,,5,,,6,,,
{32}7x,6x,5x,4x,3x,2x,1x,8x,7x,6x,5x,4x,3x,2x,1x,8x,
{32}7x/3x,4x,5x,6x,7x,8x,1x,2x,3x,4x,5x,6x,7x,8x,1x,2x,3x/8x^5[8:6],,,,,,,,,,,,
{16}4,,,,2,,,2,,,1^4[8:6],,,,,,,,C,,,,,,,,
{16}5h[16:8],,,,,,4h[16:4],,,,3h[16:3],,,2h[16:3],,,1<4[8:3],,,,,,,,,,
{16}2,,3-8[8:1],,5,,3,,,,
{16}6,6,2,8,3,4,2,6,3,5,4h[8:2],,
{16}7,,7,,3-1[8:1],5,,5,3,,7,7,,2,4,,
{16}3,,3h[8:1],,6,6,,1,8,,2,4,3,6,4,,
{16}7,5,7,,1,8,,2h[8:1],,4,4,,75,,75,,
{16}6,4,,25,,3,4,3,,5,5h[8:2],,2,,2h[8:2],,6,,6,,3,4,,4,3,,7,5,,1,8,,2,6,2,,5,4,,7,1,,2,4,3,5,4,,7,8,7,,3,5,,27,,
{32}5,,5,,,,3,,3h[8:3],,1,8,7,6,5,4,2,1,8,7,6,5,4/2x,,,,
{16}1-5[8:1],8,2,4,1,,
{16}7,7,4,6,2V48[16:3],5,,5,2,,7,7,,6-2[8:1],6,,2,,4,,
{16}3^8[8:1],4,,4,3,,6,6h[16:2],,8x-4[8:1],8x,,4,,6,,
{16}7,7,,1h[8:2],,,4-6[8:1],4,,2,4,,3,,3,,
{16}7,5,,5,6,,2,1,,3,5,,6,5,7,4,
{16}8-4[8:1],3,,3,8,,1,1,,6-2[8:1],6,,2,,4,,3^8[8:1],4,,4,3,,
{16}6,6h[8:1],,2,2,,3,4,2,5,1-5[8:1],6,,6,1,,7,7h[8:1],,2,2h[8:1],,
{32}8,7,6,5,4,3,2,1,8/4bz8[8:5]*<4^6^7^8^1^2^3^4^5^6^7^8[8:21],,,,,,,,,,,,,,,,,,,,,,,,,,,,,,,,,,,,,,,,,,,,,,,,,,,,,,,,,,,,,,,,,,,,,,,,,,,,,,,,,,,,,,,,,,,,,,,,
{24}1x,8x,7x,6x,5x,4x,
{24}8x,7x,6x,5x,4x,3x,
{24}7x,6x,5x,4x,3x,2x,
{24}6x/1x,5x,4x,3x,2x,1x,
{8}8x-6-1-5[8:3]/4x,,8/4h[8:6],,,,,,
{8}C,,3,2-4[8:1],,5,5h[8:2],,
{8}C,,6,7-5[8:1],,4,4h[8:2],,
{8}C,,35,2-4[8:1],,5,5,,
{8}3-8[8:1]/6,5,34,5,3-8[8:1]/6,5,34,5,
{8}6-8[8:1],5,1-5[8:1],2,7-3[8:1],8-4[8:1],7,8,
{8}6-1[8:1],4,65,4,6-1[8:1]/3,4,65,4,
{24}3x,2x,1x,8x,7x,6x,
{24}3x,2x,1x,8x,7x,6x,
{24}2x/5x,3x,4x,5x,6x,7x,
{24}2x,3x,4x,5x,6x,7x,
{8}1-5[8:1],2,6-8[8:1],7,2-6[8:1],1-5[8:1],2,1,
{8}3-8[8:1],4,35,6,7-4[8:1],8,37,2,
{16}1,1,2,2,3,3,4,4,5,5,6,6,7,7,8,8,
{16}2,1,3,8,
{32}4x,7x,4x,7x,5x,6x,5x,6x,
{32}5x,4x,3x,2x,1x,8x,7x,6x,
{32}5x/1x,4x/8x,3x/7x,6x/2x,5x/1x,8x,7x,6x,
{1}5hx[8:24]/1bx>1[8:30],,,,
{8}2,,2,,7,,7,,
{8}3,,3,,6,,6,,
{16}3,4,3,2,3,1,4,8,5,7,6,7,8,6,1,5,2b-6[8:1],,,,8b-4[8:1],,,,1b-6[8:1]*-4[8:1],,,,1b,,,,
{4}3b/Cf,7b/Cf,4b>1[8:1]*<7[8:1]/8b,4b,
{16}3,4,2,8,1,6,5,7,2,8,4,6,2,8,4,6,
{16}3,5,4,6,5,7,1,8,2,4,2,4,3,5,3,5,
{16}1b-5[8:1],,7,7,
{16}1b-3[8:1],,6,6,
{16}1b-7[8:1],,5,5,
{16}1b,,,,
{8}6,35,42,
{16}6,5,7,,2,1,3,8,4,7,5,6,5,7,4,6,3,5,2-6-1[16:3],,4,4,2b,,5,,
{16}7x,,8,,24,,3,3,6,5,7,,2,4,,1h[16:1],
{4}8b-4[8:1],2b-6[8:1],7b-4[8:1],1bV35V31[8:6]*V75V71[8:6],,,,
{8},2,2/5h[16:4],,
{16}3,4,1,8,2,4,3,5,4,6,5,7,
{16}3,4,2,6,5,7,1,8,2,7,5,6,
{16}3,4,2,5,1,8,,8,3,4,2,8,1,7,2,5,4,6,5,7,
{16}2,2h[16:3],,4,4h[16:3],,3,3h[48:7],
{24}1,8,7,6,5,4,1,8,7,6,5,4,
{16}7,7h[16:3],,5,5h[16:3],,6,6h[48:7],
{24}8,1,2,3,4,5,8,1,2,3,4,5,
{16}1x,5x,2,6,3,7,4,8,3,7,2,6,1,5,8,4h[16:1],2x,,
{16}35,35,,6,57,,2,,3h[8:1]/1,,8,8,,,7b/4b,,,,
{16}1-5[8:1],8,2,8,1,7,7,,6-1[8:1],4,,4,6,2-5[8:1],,2,,,
{16}8,8,,7-3[8:1],7,,3,,1,,2^5[8:1],1,,1,2,,7,7,,3,4,,2,1,2,1,3,4,,2h[8:2],,,5,5h[8:1],,3,3h[8:1],,
{32}2,1,8,7,6,5,4,3,
{16}2/4hx[8:2],,,,8,,7,,
{32}8^3[8:1],7,6,5,,,,,8,,,,,,,,
{32}5h[8:4],,,,,,,,1,,,,2,,,,1^6[8:1],2,3,4,,,,,1,,,,,,,,
{16}3,4,3,2,3,1,4,8,5,7,6,7,8,6,1,5,
{32}2,3,4,5,6,7,8,1,2,3,4,5,6,7,8,1,2x/6x,5,4,3,2,1,8,7,6x-2[8:1],5,4,3,2,1,8,7,
{16}6bx/4xz8[8:14],,,,,,,,,,,,,,,,,,,,,,,,,,,,,,,,
{16}B7,,,,,,B6,,,,B5,,,B2,,,
{24}8x,1x,2x,3x,4x,5x,
{24}1x,2x,3x,4x,5x,6x,
{24}2x,3x,4x,5x,6x,7x,
{24}3x/8x,4x,5x,6x,7x,8x,
{8}1>4[8:6]/5x,,,
{16}5,,,,7,,,7,,,8^5[8:6],,,,,,
{16}4,,,,2,,,2,,,1^4[8:6],,,,,,
{16}5,,,,7,,,7,,,8h[8:5],,,,,,
{16}4,,,,2,,,2,,,
{48}1x,2x/8x,3x/7x,4x/6x,5x,,,,,,,,,,,,,,,,,,,,E
