&title=青い空のカミュ
&artist=霜月はるか; BLUE DOOR RECORD;
&first=0.055
&des=萤&燐
&lv_5=13
&inote_5=(77)
{1},{4}2/6h[16:11],1h[16:1],{2}3h[16:3],
{4}3h[2:1]/7h[16:1],8h[16:1],{2}6,
{8}6h[16:1]/4v1[16:3],6h[16:1],4/6h[16:1],6h[16:1],6h[16:1]/2h[16:3],6h[16:1],7h[16:1],7h[16:1],
8h[16:1]/5qq3[16:3],8h[16:1],5/8h[16:1],8h[16:1],8h[16:1]/4h[4:1],7h[16:1],6h[16:1],{16}6h[16:1],4>7[16:5],
{6}4/6,5xh[12:7],{12},,,,,4x,5x/6xp3[8:3],7x/6x,
{24},,,{8}7xh[4:3],{16},,,,,,,,,,4x,6x/3x,
{4}3>6[8:3],2h[3:2],{12},,,5x,5xV36[12:5],5x,
{24},,,{8}2xh[8:5],,,,7,6,5/3,
4/3v8[8:1],8V64[8:1],{4}5,{8}7h[4:1],5,6,8/5,
5/6v1[8:1],8/1V35[8:1],{4}4,{8}2h[4:1],4,3,5/4,
7/5-8[16:1],3/4,7/5,5/1h[16:1],2/4-1[16:1],6/5,4/2h[16:1],8/4,
7/5,4/2,8q1[8:3]/1>8[8:3],7h[16:1]/6h[16:1],,,,,5/1,
2/4h[8:1],3,1/5,6/2,3/5h[8:1],4,6/2,
5/1-5[8:1],3/4h[8:1],1,6,5/2-6[8:1],4/5h[8:1],2,7,
5/1v3[8:1],2/4h[8:1],1,5,6/2v4[8:1],3/5h[8:1],2,6,
5/1v3[8:1],4h[8:1]/3v5[8:1],1,6,8v6[8:1],5h[8:1]/6v4[8:1],8,3,
1v4[8:1],2/4h[8:1],1x,1x,6/2v5[8:1],3/5h[8:1],2x,2x,
5/1v4[8:1],4h[8:1]/2v5[8:1],1x,2x,2v5[8:1],5h[8:1]/3v6[8:1],2x,3x,
8w4[32:3],1/4<7[32:3],8x,2x,1w5[32:3],8/5>2[32:3],1x,7x,
8w4[32:3],4<7[32:3]/1p7[32:3],{4}8x,{8}1w5[32:3],5<8[32:3]/2p8[32:3],{4}1x,
{8}2h[8:3],4,4,5,5/E1/B8/B1,{16}6,B2/B3/E3,{8}6,{16}7,B4/B5/E5,
{8}8h[8:3],5,5,{16}4,E1/B8/B1,{8}4,{16}3,B7/E7/B6,{8}3,{16}2,B5/B4/E5,
{8}1h[8:3],5x<7[16:1],4x,5x,{16}2,3,4,5,5,3,7xqq4[8:3],2h[16:5],
{8}8x,7x,{16},,,E1/B8/B1,,,5,B2/B3/E3,,,6,B4/B5/E5,
7,4,7,4,6,5,6,5,6,6h[8:3],5,4,3,2,1,1,
5,1,7,3,4,6,5,2,4,7,5,3h[16:5],4,5,6,7,
8,8,4,4,6,6,3,3,4,4,1,1,5,5,4/3,4/3,
{1}3h[2:1]/4s8[2:1],
{16}8bx-2[16:1],2x-4[16:1],4x-6[16:1],6xV84[16:3],{4}8w4[8:1],{16},,,,7b,2,8,4b,
6h[16:3]/5xV71[8:1],3x,1xV35[8:1],7x,,,,,,6/4<1[8:1],,8/2,,4/2,3,4,
4bx-6[16:1],6x-8[16:1],8x-2[16:1],2xV48[16:3],{4}4w8[8:1],{16},,,,3b,6,4,8b,
1x-4[16:1],3x-6[16:1],5x-8[16:1],7x-2[16:1],,,,,,8>5[8:1],,3/4,,8/6,7,8,
8x-4[16:1],4x-2[16:1],2x-6[16:1],6x-8[16:1],{4}8w4[8:1],{16},,,,7,2,4/3,5,
6h[16:3]/5x-3[16:1],3x-7[16:1],7x-1[16:1],1x-5[16:1],,,,,,1<4[8:1],,6/5,,1/3,2,1,
4bx-8[16:1],8x-6[16:1],6x-2[16:1],2x-4[16:1],{4}4w8[8:1],{16},,,,3,6,8/7,1,
4bxV28[8:1],3xV17[32:3],8xV64[32:3],7xV53[16:1],{4}4z8b[32:3],{16},,,3/8,,5,7,{32}6,5,
{1}4b/Cf,
E
