&title=オーバーライド[SD]
&artist=吉田夜世
&first=0
&des=illushota
&lv_5=13.5
&inote_5=(204)
{1},
{8}6,,3,,5,,4,,3/5,6,4/7,3,2/5,6,4/7-4[8:1],,
3/7b,,2-5[8:1],6,2,,8-4[8:1],3,
8,1,6,7<4[8:1],3,2,1-5[8:1],7,
1,,7-4[8:1],3,7,,1-5[8:1],6,
1,8,3,2>5[8:1],6,7,8-4[8:1],2,
8,,1-5[8:1],6,1,,7-3[8:1],2,
7,8,1,2>5[8:1],5,2,6-1[8:1],7,
6,,4-8[8:1],6,4,,7-3[8:1],2,
7,2,1,6,{16}2,3,4-8[8:1],,6,,4,,
6qq8[8:4],,,,{8}2,,2,,2,,
2-5[8:2],,6,,7,,8-5[8:2],,
5qq6[8:3],,2,,1,,1-4[8:2],,
5,,6,,7-4[8:2],,8,,
1,,2-7[8:2],,3,,4,,
5-2[8:2],,6,,7,,8-4[8:1],,
8,,1,,2h[8:2]/5,,6,,
7h[8:2]/3,,2,,1h[8:2],,{16}8,7,6,5,
{8}3b,,2-8[8:1],4,2,6,7-5[8:1],1,
7,3,4-2[8:1],6,4,8,7-3[8:1],2,
7/1-4[8:1]*-6[8:1],,1,,,2z6[32:7],6,7V52[8:2],
8h[8:4],,,,1,,2-6[8:1],,6/2,,7-1[8:1],5,7,3,2-4[8:1],8,
2,6,5-7[8:1],3,5,,1w5[8:1],,
1,,8w4[8:1],,8,,17,,
6-4[8:1],8,6,2,3-1[8:1],5,
3,7,8h[8:4],,,2,3h[8:4],,,5,
6h[8:3],,,4,5h[8:4],,7,,
8,8,,2,1h[8:4],,,7,
6h[8:4],,,4,3h[8:3],,5,5,
24,,18,,4/7,6,2/5,3,
5/8,7,4/1,2,5/8,6,4/1,3,
4/7,,,7/8,1/5,,,2/1,
8p4[8:1]/4p8[8:1],,8-2[8:1]/4-6[8:1],,,,
{8}
8-4[8:1],,1b/8,,3,3,25,6,8>3[8:1],7,8q4[8:1],,8qq8[4:1],,8>3[6:1],,,,
4h[4:1],,1,1,25,6,7h[4:1],,8pp8[4:1],,8<5[6:1]*p4[6:1],,,,,,
1-5[8:1],,6,6,47,3,1<6[8:1],2,1p5[8:1],,1pp1[4:1],,1<6[6:1],,,,
5h[4:1],,8,8,73,2,1>4[8:1],8,1/7pp7[4:1],,7<4[6:1]/1>4[6:1],,,,,
{8}
6,6v1[8:1],,2,2,38,7,5>2[8:1],6,5p1[8:1],,5pp5[4:1],,5>2[6:1],,,,
1h[4:1],,3,3,24,1,6,7,8q4[8:1]/4>1[8:1],,8/4pp4[4:1],,,,,,
3v8[8:1],,7,7,16,2,4<7[8:1],3,4q8[8:1],,4qq4[4:1],,4<7[6:1],,,,
8h[4:1],,6,6,15,2,3/4-1[8:1],5,46,,,
8h[8:1],6h[8:1],4h[8:1],8h[8:1],2h[8:1],
4b,,2>5[8:1],6,2,,8-4[8:1],3,
8,1,6,7v4[8:1],3,2,1q5[8:1],7,
1,,7<4[8:1],3,7,,1-5[8:1],6,
1,8,3,2v5[8:1],6,7,8p4[8:1],2,
8,,3-8[8:1],5,3,,7v4[8:1],3,
7,2,1,8>3[8:1],4,8,5-1[8:1],7,
5,,6-1[8:1],4,6
,,2v5[8:1],6,
2,7,8,1,{16}5,4,3,2,7-3[8:1]*-4[8:1],,1,,
7b,,,,{8}2h[8:1],5,3h[8:1],1,2h[8:1],4,
3h[8:1],8,1h[8:1],6,2h[8:1],7,4h[8:1],8,
5h[8:2],,7h[8:1],4,6h[8:1],8,7h[8:1],5,
6h[8:1],1,8h[8:1],3,7h[8:1],2,5h[8:1],1,
4h[8:2],,3h[8:1],8,2h[8:1],4,3h[8:1],1,
2h[8:1],5,4h[8:1],7,3h[8:1],6,1h[8:1],5,
8h[8:2],,6h[8:1],1,7h[8:1],5,6h[8:1],8,
7h[8:1],4,5h[8:1],2,6,3,8-4[8:1],,
8b,,2-5[8:1],1,2,,7-4[8:1],8,
7,,1-5[8:1],1,7-4[8:1],7,8-3[8:1],8,
6,,6-1[8:1],5,6,,3-8[8:1],4,
3,,5-1[8:1],5,3-8[8:1],3,4-7[8:1],4,
2,,1-5[8:1],1,4<7[8:1],,2-6[8:1],
2,8-4[8:1],,3-7[8:1],3,6-2[8:1],6,4v7[8:1]*v1[8:1],4,
,,2-6[8:1],2,5<8[8:1],,3-7[8:1],3,
1V75[32:9],,5,4,3,2,1,8,7h[8:7],,,,,,,
3,21,21,83,83,74,,
5-1[8:1],,5/6b,,8,8,27,1,6/8>3[8:1]*q4[8:1],7,8qq8[4:1],,8,,3>8[8:1],,34,,
7h[4:1],,5,5,46,37,8/2h[4:1],,1qq1[4:1]*>4[8:1],,1q5[6:1],,,,,,
4-8[8:1]/3,,1,1,72,8,3/1<6[8:1]*p5[8:1],2,1pp1[4:1],,1,,6<1[8:1],,65,,
2h[4:1],,4,5,16,7,8<5[8:1]/2,3,8/2qq2[4:1],,2>5[6:1]/8<5[6:1],,,,,
1v6[8:1],2,,4,4,57,6,2/4<7[8:1]*q8[8:1],3,4qq4[4:1],,4,,7<4[8:1],,78,,
3h[4:1],,1,1,28,7,6/5qq5[4:1],4,3/5<8[8:1],,1p5[6:1],,,,,,
8v3[8:1],,87,,24,1,7/5>2[8:1]*p1[8:1],6,5pp5[4:1],,5,,2>5[8:1],,21,,
6h[4:1],,3,2,18,7,6/5-8[8:1],4,35,,,
1,{16}7,5,7,,2,4,2,,
{8}6<3[32:15],,2,2>7[32:15],,5,5,,
{8}8>5[32:15],,4,4<1[32:15],,1,1,,
{8}3>6[32:15],,7,7<2[32:15],,4,4,,
{8}1V75[32:8],,5V31[32:10]*s1[32:10],,,,,,
{16}6,5,7h[4:1],,,,1,8,2-5[8:1],,,,12,,,,
{16}2,1,3h[4:1],,,,5,4,6-1[8:1],,,,65,,,,
{16}3,4,3h[4:1],,,,1,2,1-5[8:1],,,,16,,,,
{16}7,8,7,,16,,2,1,2,,38,,4,3,2,1,
{8}8bV24[32:6],,7,7,6v8[8:1],6,4>1[8:1],4,1>4[8:1],,4p8[8:1],,8q4[8:1],,4pp4[4:1],,
8,,1,1,23,4,56,7,8<5[8:1]/1<5[8:1],,8p4[8:1]*pp8[4:1]/1,,,,,,
{8}5V31[32:6],,56,,7v4[8:1],7,8>3[8:1],8,3>8[8:1],,8q4[8:1],,4p8[8:1],,8qq8[4:1],,
5h[4:1],,,,41,41,5<8[8:1]/2v5[8:1],63,52,,,
1h[8:1],3h[8:1],5h[8:1],1h[8:1],7h[8:1],
5b,,2>5[8:1],5,2/6-1[8:1],,6,3,
4-8[8:1],4,5-1[8:1],5,3,4,5>2[8:1],6,
7,,7<4[8:1],4,7/3-8[8:1],,3,6,
5-1[8:1],5,4-8[8:1],4,6,5,4<7[8:1],3,
2,,1-5[8:1],6,7<4[8:1]/1,,7,2,
1-5[8:1],1,7-3[8:1],7,2,1,8>3[8:1],7,6,,8-4[8:1],3,2>5[8:1]/8,,2,7,
8-4[8:1],8,3,{16}2,,6,7,8-4[8:1],,2s6[8:1],,8b,,2b,
