&title=法界の火
&artist=上海アリス幻樂団
&first=0
&des=yuzukeai
&lv_5=13+
&inote_5=(175)
{1},
{4}2z6[8:3],,,,
{4}2z6[8:3],,,,
{4}2z6[8:3],,,,
{4}2z6[8:3],,,,
{4}6z2[8:3],,,,
{4}6z2[8:3],,,,
{4}6z2[8:3],,,,
{4}6z2[8:3],,,,
{4}2z6[8:3]/5h[1:3],,,,
{4}6z2[8:3],,,,
{4}2z6[8:3],,,,
{4}6z2[8:3],,5-1[8:1],{8}51,2,
3-7[8:1],,5-1[8:1],,5,,,,
{4}1-5[8:1],7-3[8:1],7,,
2-6[8:1],8-4[8:1],8,,
4-8[8:1],6-2[8:1],6,{8}1,1,
{4}7s3[8:3],1<2[8:4],1,,
7s3[8:3],1>8[8:4],1,,
5s1[8:3],2>1[8:4],2,,
5s1[8:3],2<3[8:4],2,{8},,
8b,,,,2,4,5,7,
,5,4,32,,4,5,86,
,6,5,14,,3,4,5/8-4[8:1],
,,,2-4[8:1]/6-4[8:1],6/2,,,,
1,8,1h[4:1],,7,1,6h[8:3],8-4[8:1],
,8,,,7,8,1,2,
8,1,8h[4:1],,2,8,3h[8:3],1-5[8:1],
,1,,,2,1,8,7,
1,8,2h[4:1],,7,2,8,3-7[8:1],
,4h[4:1]/3,,,7,8,1,2,
8,1,7h[4:1],,2,7,1,6-2[8:1],
,6/5h[4:1],,,2,1,8,7,
6-2[8:1],2,6,3,4-1[8:1],1,8,7h[4:1],
,1-7[8:1],8,1,6-2[8:1],2,6,3,
3-7[8:1],7,3,6,5-8[8:1],8,1,2h[4:1],
,8-2[8:1],1,8,3-7[8:1],7,3,6,
2-6[8:1],8,2,1-5[8:1],5,1,3,2h[4:1],
,8-5[8:1],2,8,1-4[8:1],7,1,6,
7-3[8:1],1,7,8-4[8:1],4,8,6,7h[4:1],
,8,15,,3-8[8:1]/7-4[8:1],,37,,
2-7[8:1],2,,6-3[8:1],6,,1-4[8:1],1,
,5,5,,2-5[8:1]/6-1[8:1],,26,,
7-2[8:1],7,,3-6[8:1],3,,8-5[8:1],8,
,4,4,,7-4[8:1]/3-8[8:1],,73,,
1>4[8:1],1,,5<8[8:1],5,,4-1[16:2],4,
,7,7-3[8:1],,3>1[8:1]/7<5[8:1],,7,,
4<7[8:1],4,,1>4[8:1],1,,5-8[16:2],5,
,2,3p7[8:1]/7p3[8:1],,7>2[8:1]/3<6[8:1],,37,,
{16}73,48,15,,,,26,37,48,,,,25,36,47,,
,,16,27,3-8[8:1]/8-4[8:1],,,,8>3[8:1]/3<6[8:1],,,,,,,,
{16}26,51,84,,,,73,62,51,,,,74,63,52,,
,,38,27,1q5[8:1]/6v1[8:1],,,,1<6[8:1]/6>3[8:1],,,,,,,,
25,36,47,,,,47,36,25,,,,16,27,38,,
,,38,27,1-5[8:1]/6<4[2:1],,,,16,,,,4<8[16:5],,,,
7>2[16:4],,,,,,4,,,,,,{192}4p5[4:1],6-3[4:1],,,,,,,,,,,,,,,,,,,,,,,,,,,,,,,,,,,,,,,,,,,,,,,
{16},,,,,,,,7b/2b,,,,3,,4,,
{8}5/3h[8:1],6,5,4/6h[8:1],3,4,5/2h[8:1],,
,4-2[8:1],3,4,1-4[8:1],,14,,
6h[8:1],3,4,5/3h[8:1],6,5,4/7h[8:1],,
,5-7[8:1],6,5,8-4[8:1],,8b/4b,,
6h[8:1],7,6,5h[8:1],4,5,6h[8:1],,
,4-8[8:1],7,4,5-1[8:1],2,5,,
{16}3h[8:1]/7b,6,5,,,,6b/2h[8:1],5,4,,,,5b/1h[8:1],4,3,2,
1,8,7/4b,5,6-2[8:1],7,8,1,62,,,,3h[4:1],,,,
{24}8-4[8:1],7,6,,1,,8,,,1-5[8:1],,,8,,,1,,,8-4[8:1],7,6,1,,,
8,,,1,2,3,4,5,6,7,8,1,2-7[8:1]/6-3[8:1],,,,,,26,,,,,,
{24}8-4[8:1],1,2,7,,,8,,,7-4[8:1],,,8,,,7,,,1-5[8:1],2,3,8,,,
1,,,8,7,6,5,4,3,2,1,8,7v2[8:1]/3v6[8:1],,,,,,73,,,,,,
{24}1-5[8:1],8,7,2,,,1,,,2-5[8:1],,,1,,,2,,,8-4[8:1],7,6,1,,,
8,,,1,2,3,4,5,6,7,8,1,2-8[12:1]/6-4[12:1],,,,,,2b/6b,,,,,,
{24}2b,3,4,5,6,7,8,1,2,3/6b,5,4,3,2,1,8,7,6,5/1b,2,3,4,5,6,
7,8,1,2b/6-3[8:1],,,,,,,,,2-7[8:1],,,,,,2,,,,,,
{4}2z6[8:3],,,,
{4}2z6[8:3],,,,
{4}2z6[8:3],,,,
{4}2z6[8:3],,,,
{4}6z2[8:3],,,,
{4}6z2[8:3],,,,
{4}6z2[8:3],,,,
{4}6bz2[8:3]*z2[8:3]*z2[8:3]/4p5[8:3]*p5[8:3]*p5[8:3],,,,
,
