&title=ナイト・オブ・ロンド
&artist=ひなビタ
&first=0
&des=bbben vs. ANNET
&lv_5=14
&inote_5=(169)
{1},{4},,,{8},
{16}4,5,
{8}4,6,7,2,,8>4[8:3],,7h[8:3],,,,,
{4}2h[4:1],4h[4:1],6h[4:1],
{8}8,8-4[4:1],,
{4}4>4[4:3],
{8}8,{4},,,
{8},2,6,3,5,4qq4[4:2]*pp4[4:2],,4,,,,,,
{8}7h[4:2],,6,5,4>7[8:7],,6,6q7[8:4],,,,,,
{1},
{16}4-1[8:1],5,3,6,4<1[4:1],,
{8},,,3-8[8:1]/3-7[8:1],,,,
65,3,{16}1,2,1,,65,,7,,1,8,1,8,2,7,2,7,1-5[8:1],5,3,7,{8}1b-3[8:1]*-7[8:1],,
1v6[8:1],,41,4-8[8:1],,4/7-3[8:1],,71,,1b,1b,,{16}1,2,3,4,8,7,6,5,
{8}4z8[8:3]/8q5[8:3],,,,,,,2qq6[8:3]/6pp2[8:3],,,,,,4b,4b,,
{16}1,2,3,4,7,6,5,4,1,8,2,7,1,8,{8}2pp5[8:3],,5,6,7,{16}8,1,2,3,{8}4b/8b,,
{8}6/4,5,3,3,4/7v4[8:1],,7,,
{16}25,,3,4,3,,
{8}5,6,7,2>6[4:1],1,2,,8-5[8:1],8,4>8[4:1],4,,6h[4:1],
,4,3,2-7[8:1],,,3-6[8:1],,1b,,4,5,
37,,4qq2[8:1]/8qq6[8:1],,48,
{8},8,7h[8:2]/3h[8:2],,,7p3[8:1]/3p7[8:1],,,,1-4[8:1]/5-8[8:1],15,,,,
2-6[8:1],8-4[8:1],2,8,,
{16}3,5,3,,{8}8b,,
24,3,75,6,{16}1,5,1,,3,,7,,{32}1,2,3,,7b,,,,2,3,4,,8b,,,,4,3,2,1,8,7,6,5,{8}4b/8b,,
75,6,24,3,{16}8,4,8,,6,,2,,{32}8,7,6,,2b,,,,7,6,5,,1b,,,,5,6,7,8,1,2,3,4,
{8}1bs5[8:3]/5b,,,,,6h[8:3],,,7pp4[8:3],,7h[8:3],,,,,,3qq4[8:3],,3,,5,6,,7b,7b,,
1-5[8:1],,1/6-2[8:1],,6/4-8[8:1],,4/5bp4[2:1],,5,,,1h[1:0],,2h[1:0],2h[1:0],3,
3^6[4:1],,6^1[4:1],,1v8[8:1],,6h[8:1],,6-2[4:1],,2-5[4:1],,5-1[4:1],,1-4[4:1],,
4q7[2:1]*qq7[2:1],,,,,,,,{16}24,,,75,,,18,,2-5[8:1]/7-2[8:1],,,,27,,,,48,,,2,,,6,,28,,,,,,
2,6,4V26[4:1],,,5,,,7,,7,,,8,,,18,,{8}2^4[8:1]/7^5[8:1],,27,,27,,18,,
{24}4,3,2,1,8,7,6,,,1,2,3,4,5,6,73,84,15,6,7,8,1b,,,
27,3,4,5,6,7,8,1,2,37,6,5,4,3,2,1,8,7,{8}6b/2b,
{16}3,4,3,,8,,1,,
{8}2-5[8:1]/7,8,2/7-4[8:1],1,72,1b<5[8:1],
{8}3,3-8[8:1],,3-6[8:1],,3,,7b,{16}2,1,2,,
{8}6-3[8:1],1,2<7[8:1],,,,
{16}2,4,3b,,7,5,6,4,5,3,7bp1[8:1],,,,
{16}7,,,,4pp8[8:2],5,{8}4h[8:3],{4},,
{16}7b/4b,,,5b/2b,,,7b<4[8:1]/4b>1[8:1],,{4},
{16},,3,4,3b,,65,,7-5[8:1]/4,,83,,,,,,
8,1,2,3,4,5,6,7,8,1,2-5[8:1]/3-8[8:1],,,,23,,,,1,5,
{8}1-5[8:1],2,1/8-4[8:1],7,8/2-6[8:1],1,2/7-3[8:1],8,7/1b-4[8:1]*-6[8:1],,1,,
5V31[4:1],,1V38[4:1],,,,7,7h[8:2],,1q5[8:1],,1/5q1[8:1],,5/1v3[8:1],,1/3v1[8:1],,
3qq4[8:3]/1,,,,,,1,8,7,6,6z2[8:4]/3s7[8:4],,,,,,,,{16}1,5,{8}1^6[8:1],2,3,4^7[8:1],
3,2,1,8bw4[8:1],,8,,37,26,15,84,{16}84,7,6,5,4,3,8b,,8,1,2,3,4,5,
{8}1bs5[4:1],,,,,,{16}28,,,17,,,7,6,5pp4[2:1],,,,,,3h[1:0],,,,,,2h[1:0],,,,,,
1h[1:0],,8,,7,,6h[1:0],5h[1:0],6h[1:0],5h[1:0],6h[1:0],5h[1:0],6h[1:0],5h[1:0],
6b,,,8b,,,5b,,,4b,,,3b,,,2,,,1,,,8,,,7b,,,5,,,{8}5,45,34,2,1,8^3[8:1],7,6,5,
4^7[8:1],3,2,1,{16}8,1,2,3,4,5,
{16}6b<1[8:1],,,,2,3,4,5,6,7,,,1,,3qq1[8:1],,5,,7,,,,,,3,,24,,15,,86,,7,,8pp3[4:1],,
7,,6,,5,,4,,6,7pp4[4:2],8,,2b,,,,4,,4>8[4:1],,,,
{4}2h[4:1],,
{16}7b,6,5,4,
1,2,3,4,8,7,6,5,4/2b,,,,
4,3,2,1,5,6,7,8,1b/2b,,,3b/4b,,,5b/6b,,
{4}4>1[112.6#100:8]/7<4[112.6#100:8],,,{16}8,8,8,,
{4}5<8[112.6#100:8]/2>5[112.6#100:8],,,{16}1,1,1,,
{24}7/4b,6,5,4,3,2,1,8,7,6,5,4,2b,,,,8b,,,,6bpp2[16:10],,,,
{8}6,4,4,4,4,4,4,4-1[112.6#100:8],,,7b,7b-1[8:1]*-5[8:1],,7s3[8:3],,,,,,,
1-5[8:1]*-6[8:1]*-4[8:1]*w5[8:1],,1pp5[8:10]*qq5[8:10],,,,,,,,,,,,,,
{16}4,5,4,5,4,5,4,,{16}5b/7b,,,4b/2b,,,1b/8b,,2-5[8:1]/7-2[8:1],,,,2b/7b,,,,
6b/5b,,,1b/2b,,,37,,{8}3-8[8:1]/7v4[8:1],,3/7qq4[8:3],,,3,2,1-5[8:1],,1/6pp5[4:1],,
63,,,{16}1,1,2,1,1,8,1,1,2b,,7,7,
{8}7,3-8[8:1],24,6-1[8:1],,5,,
{32}2,3,4,5,6,7,8,1,2,5,,,
{8}5,5,5-8[8:1],,57,,2b/3b,
{16}5,6,5,,18,,3,4,2<7[8:1],,,,
{32}6,5,4,3,
{16}2,1,8,7,6,5,4,3,2,1,8pp2[8:1]/4pp6[8:1],73,26,51,
{8},,,45,7,43,1,4qq4[4:1]*pp4[4:1]/6,2,4,,,
{24}8,7,8,7,8,7,8,7,8,7,,,
{16}4,5,{8}3h[4:1],,,1b-5[8:1],,6b-2[8:1],,1b,,,
{16}4,5,2,7,5,3,8,7,3,4,1,8,4w8[8:1],,,,,,,,
2,7,3,6,4,5,4b,,,,
{8}78,81,12,23,34,45,56,
{8}2,3,4,5,,8`7,,,2`5,,,,4,,,,
{32}2,1,8,7,,,,,{4},
{32},,5,,,,,,,,6,,,,,,{4}7,8,{32},,,,,1,,,
{4},,
{24}6v1[1:3],5,4,3h[24:75],
{1},,,,
