&title=Non-Existent Omens,Vestigial Assurance
&artist=Ks3ilingf4ce
&first=0
&des=wuhuuu
&lv_5=14
&inote_5=(150){4},,,,,,,,,,,,,,,,,,,B2/B3/Ch[2:1]/8<1[4:29],
,,,B5/B4/Ch[2:1],
,,,B6/B7/Ch[2:1],
,,,B8/B1/Ch[2:1],
,,,B8/B1/Ch[2:1],
,,,8h[16:1],
7h[16:3],,,6q7[4:3],
,,,,,5h[2:3],
,1>8b[4:13],
{8},,,,,,,4h[2:1],
,,,,,,{4}B8/B1/Ch[2:1],
,,,B5/B4/Ch[2:1],
,,7p5[8:5],7h[2:1],
,,6p2p5[8:5],6h[2:1],
,,7-4-1-6-3p7[8:5],7h[2:1],
,,8-6p3-1<8[4:3],8h[2:1],
,,,5bxh[4:13]/4xh[4:7],
{1},{4},,{16},{32},3xh,
,,,,,,,,,,,,3xh,
,,,,,,,,,,,,{16}2xh,,,{8}1xh,{16},,,1xh[16:1],
{32},2x,3x,4x,(200)5x,6x,7x,8x,{4}1bxh[1:1],,,,,,,,1<4[2:3],
,,,C,
,,,2-8>1-5[2:3],
,,,C,
,,,8-2<1-5[2:3],
,,,C,
,,,5/3-7-1-5[2:3],
5,5,
5,4,4,4,
4,4/5<8-4>1[2:3],4,4,
4,5,5,5,
5,5>5[2:3]/4<4[2:3],,,,,,,,8-5-2[2:1],
,,,4-1-6[2:1]/3-7[2:1],
{8},,,,,,7,
7,{4}7h[4:1],6h[1:1],
{8},B5,,B4,,2,{4}2,
4,{8}2,2,{4}2h[4:1],3,
{8}6q2[8:1],6,1-4[8:1],1,7p3[8:1],7,{4}B6f,
{8},,2,2,{4}2h[4:1],3,
{8}4,4,5,5,6,6,{4}7h[1:2],
{8},,B1,B2,B3,B4,A1,A2,
A3,A4,{4}Cfh[2:1],{8},,,,,,8-5[4:1],
8,{4}8-3[4:1],8,
{8},5>1[4:1],,1V75[4:1],,5p7[32:9],,,,,1-4[4:1],
1,{4}1-6[4:1],1,
{8}2,2,2v3[4:1],2h[8:1],,,7v6[4:1],7h[8:1],
,,1,1,2,2,3,3,
{16}4,5,4,5,{8}4,4,5,5,6,6,
7,7,{16}8,1,7,2,8,1,6,3,7,2,5,4,
6,3,5,4h[16:9],,,{8}5,5w1[8:1],5,{32}5,B5,Cf,E1/E2,,,,,,,,,,,,,1bx>8[2:1],
B1,Cf,B5,{8}5bxh[32:19],,,,,,,7,
7,2,2,{16}8,1,8,1,
8,1,8,1,{32}8bx<1[2:1],B8,Cf,B4,{8}4bxh[32:19],,,,,,,{4}7h[4:1],
5h[4:1],4h[4:1],
2h[4:1],{32}7bx<8[2:1],B7,Cf,B3,{8}3bxh[8:5],{4},,,{32}2b>1[2:1],
B2,Cf,B6,{8}6bxh[32:19],,,,,,,{4}8-4[8:1],
{2}8w4b[4:1],
{4},1-5[8:1],{2}1w5b[4:1],
{4},6h[4:1]/5h[8:1],B4,{8}5/6h[8:1],5,
4,4,{4}3h[4:1]/4h[8:1],B5,{8}4/3h[8:1],4,
5,5,{4}7h[4:1]/5h[8:1],B3,{8}5/7h[4:1],5,
4,4,{4}2h[4:1]/4h[8:1],B7,{8}4/2h[4:1],4,
5,5,3/4,3/4,4/3,4/3,6/5,6/5,
6/5,6/5,7/4,6,5/2,3,8/4,6,
5/1,3,{16}4,5,4,5,3,6,3,6,2,7,2,7,
1,8,1,8,{4}1bw5b[16:9],,,,5bh[8:1]/4bh[8:1],
{16}7,5,{8}6,{16}2,4,{8}3,
{16}7,5,{8}6,{16}1,4,{8}3,{16}8,5,{8}6,{16}1,4,{8}3,
{16}8,5,{8}6,{16}1x,3x,{8}2x,{16}8x,6x,{8}7x,{16}1x,3x,{8}2x,
{16}8x,6x,{8}7x,{16}1,4,{8}3,{16}8,5,{8}6,{16}2,4,{8}3,
{16}7,5,{8}6,{4}4bh[8:1]/5bh[8:1],{16}6,4,{8}6,{16}3,5,{8}3,
{16}6,4,{8}6,{16}3,4,{8}3,{16}6,5,{8}6,{16}3,4,{8}3,
{16}6,5,{8}6,{16}3x,3x,{8}3x,{16}6x,6x,{8}6x,{16}4x,4x,{8}4x,
{16}5x,5x,{8}5x,{32}4bx,5bx,4bx,5bx,{8}4bx,4bx,4bx,{4}4bxw8[4:1],
,,8b<4[4:1],4>8[4:1],
8-6-4[4:1],4-2-8[4:1],8p4[4:1],4p8[4:1],
,2bp5[8:1],7q4[8:1],2v5[8:1],
7v4[8:1],2-5[8:1],7-4[8:1],2>4[8:1],
7<5[8:1],{8}1b-5[8:1],1,8-4[8:1],8,1>4[8:1],1,
8<5[8:1],8,2-5[8:1],2,7-4[8:1],7,2>4[8:1],2,
7<5[8:1],7,2-6[8:1],2,1-5[8:1],1,8-4[8:1],8,
7-3[8:1],7,{4}1-5b[8:1],{2}1w5b[4:1],
{8},,8b-4[8:1],8,{4}4-8[8:1],B2/B3/E3,
{8}2-4[8:1],1,2/8-6[8:1],1,8/2-5[8:1],1,2/8-5[8:1],1,
{4}8,{8}1b-5[8:1],1,{4}5-1[8:1],B7/B6/E7,
{8}7-5[8:1],8,7/1-3[8:1],8,1/7-4[8:1],8,7/1-4[8:1],8,
{4}1,{8}8b-4[0.3##0.15],{32}8,,,,{4}4-8[8:1],B2/B3/E3,
{8}1,1,2/7-3[8:1],2,2/7,2,2/4-8[8:1],2,
2/4,2,7b/1-5[8:1],7,7/1,7,7b/6-2[8:1],7,
7/6,7,7b/1,7,8/2b,2,8bx/1bx,{32}8b,7,6,5,
4,3,2,1,,,,,{8}8-4-2[16:5]/4-8-6[16:5],8/4,,,,,1-4[8:1],
1,7/1b-6[8:1],8,3/1b-4[8:1],2,7/1b-6[8:1],8,
{4}3/1b,{8}1-5-7[16:5]/5-1-3[16:5],1/5,,,,,8-5[8:1],
8,2/8b-3[8:1],1,6/8b-5[8:1],7,2/8b-3[8:1],1,
{4}6/8b,{8}8-5-3[16:5]/4-1-7[16:5],8/4,,,,,7/3,
7,4/8,8,1/5,1,5-8[8:1]/1v4[8:1],5/1,
,,7/3,7/3,6/2,6/2,5/1,5/1,
4/8,8/4,8/4,{16}1x,2x,3x,4x,{8}5x,{32}8x,7x,6x,5x,4x,3x,2x,1x,
{8}8bh[8:1]/4bx-8[8:1],4b,{4}B4f,,,,,,,,B8/Cfh[2:11],
,B4,
,B1,,B5,
,A7/E8/E7,,E4/E3/A3,
,A8/E8/E1,,A4/E5/E4,
,A7/E8/E7/B7,,E4/E3/A3/B3,
,A8/E8/E1/B8,,A4/E5/E4/B4,
{16},,,,4b,5,4,5,3b,6,3h[32:1],6h[32:1],4b-1[8:1]*-8b[8:1],5,4b,5,
,,,,2,1,2b,1,3,8,3bh[32:1],8h[32:1],2-5b[8:1]*-6[8:1],1,2,1,
,,,,7b,8h[32:1],7,8,6b,1,6h[32:1],1h[32:1],7b-4b[8:1]*-3[8:1],8,7b,8,
,,,,2,1h[32:1],2b,1,{32}2xw6[8:1],3x,4x,5x,6bx,7x,8x,1x,{4}2x/B7/B6/Cf/B5,
{16},,,,1b,8,2,7,1b,8,2h[32:1],7h[32:1],1b-4[8:1]*-5b[8:1],8,2,7,
,,,,3,4,2b,5,3,4,2bh[32:1],5h[32:1],3-8[8:1]*-7b[8:1],4,2,5,
,,,,6b,5h[32:1],7,4,6b,5,7h[32:1],4h[32:1],6b-1[8:1]*-2b[8:1],5,7b,4,
,,,,3,4h[32:1],3-1b[8:1],4,3b,4,{8}3h[32:1],{16},,7h[32:1],8h[32:1],
7b-3b[8:1],8,{8}7,{4}7/2b-5b[8:1],2/6b-2b[8:1],{8}3b/6,3bv8b[8:1],
,3/5b-1b[8:1],,5/2b-6b[8:1],,2/8b-5b[8:1],,8,
{32}4b,3x,2x,1x,8x,7x,6x,5x,{4}4bx-1b[8:1],4/8b-4b[8:1],{8}3b/8,3bv6b[8:1],
,3/1b-5b[8:1],,1/4bp7b[8:1],,4/6b-2b[8:1],,6`B6f,
,,1b-5b[8:1],1,8b-4b[8:1],8,7b-3b[8:1],7b,
8-4b[8:1],8b,1-5b[8:1],1b,2-6b[8:1],2b,1b-5b[8:1],1,
8b-4b[8:1],8,2b,2,7b,7,{16}2b,7,2,7,
1b,8,1,8,{32}1b,2x,3x,4x,,,,,8b,7x,6x,5x,,,,,1b,2x,3x,4x,5x,6x,7x,8xw4b[8:1],
1bx,2x,3x,4x,5x,6x,7x,8x,B8,Cf,{16}B5/B4/B3,{1},{4},,,{8},8x-5[8:1],
5<7[32:3],8,{32}2bxh,3x,{16}4x,{32}8bxh,1x,2x,3x,4x,5x,6x,7x,
8x,1x,2x,3x,{8}4x,1x-4[8:1],4>2[32:3],1,{32}7bxh,6x,{16}5x,{32}1bxh,8x,7x,6x,5xw1[8:1],4x,3x,2x,
1x,8x,7x,6x,5x,B5,Cf,B8/B1/B2,{1},,{8}8bx-6b[8:1],
1bx-3b[8:1],8bx-4b[8:1],1bx-5b[8:1],8bx<6b[8:1],1bx>3b[8:1],
8bx-3b[8:1],1bx-4b[8:1],8bx-5b[8:1],1bx-6b[8:1],8bx-4b[8:1],1bx,8bx,{64}D5,A5,D6,A6,D7,A7,D8,A8,
{4}D1/B8/E1f/A1,{8}2-5[8:1],1-6[8:1],2<4[4:1],1,{4}2,
8q3[4:1],3<8[8:3],{8},8-3<5[8:1],,,2,
2h[8:1],{16}8h[32:1],3h[32:1],7h[32:1],2h[32:1],{8}8h[32:1],3,4,6h[8:1],
{16}5h[32:1],7h[32:1],4h,6h,5>3[8:1],6,{32}5,6,,,{4}5,{16}4<6[8:1],3,4,3,
{4}4,{8}7-4[8:1],8-3[8:1],7>5[4:1],8,{4}7,
1p6[4:1],6>1[8:3],{8},1-6>4[8:1],,,7,
7h[8:1],{16}1h[32:1],6h[32:1],2h[32:1],7h[32:1],{8}1h[32:1],6,5,3h[8:1],
{16}4h[32:1],2h[32:1],5h,3h,4,3,4,3,5,2,5,2,6,1,6,1,
7w3[8:1],8,7,8,{32}7,B7,Cf,B2/B3/B4,{1},{4},,,{16},,{4}Ch[1:6],
,B5,
,B3,,,B4,
B5,,B6,
{1}B7,
{4}B8,B1,,B2,
B3,B4,B5,B6,
B7,7<4[4:9],,,B8,
B1,B2,B3,
B4,B5,B6,2>5[4:9],
,,B1,B8,
B7,B6,B5,B4,
B3,8<5[1:2],,,A1,
A2,A3,A4,
B4,C,B8,1>4[1:2],
,,A8,A7,
A6,A5,B5,C,
B1,6h[4:1]/4h[8:3],,B6,
{2}3h[4:1]/5h[8:3],{4}B3,3h[8:1]/5h[8:1],
B7/B8,6h[8:1]/4h[8:1],B1/B2,3h[4:1]/5h[8:3],
,B3,{2}6h[4:1]/4h[8:3],
{4}B6,3h[8:1]/5h[8:1],B2/B1,4h[8:1]/6h[8:1],
B8/B7,7h[4:1]/1h[8:3],,B7,
{2}2h[4:1]/8h[8:3],{4}B2,7h[8:1]/1h[8:1],
B6/B5,8h[8:1]/2h[8:1],B4/B3,{8}7,7,
1,1,8,8,2,2,8,7,
6,5,4,3,2,1,{4}8bh[4:1],
Cf,1bxh[4:1]/8<5[8:1],A7,8bxh[4:1]/1>4[8:1],
A2,1bxh[4:1]/8-6>5[8:1],B7,8bxh[4:1]/1-3<4[8:1],
B2,1bxh[4:1]/8-5[8:1],E8,8bxh[4:1]/1-4[8:1],
E2,1bxh[4:1]/8v5[8:1],B8,8bxh[4:1]/1v4[8:1],
B1,1bxh[4:1]/8q5[8:1],B1,8bxh[4:1]/1p4[8:1],
B8,2bxh[4:1]/7<4[8:1],A6,7bxh[4:1]/2>5[8:1],
A3,2bxh[4:1]/7-5>4[8:1],E6,7bxh[4:1]/2-4<5[8:1],
E4,2bxh[4:1]/7-4[8:1],B6,7bxh[4:1]/2-5[8:1],
B3,2bxh[4:1]/7v4[8:1],B7,7bxh[4:1]/2v5[8:1],
B2,2bxh[4:1]/7q4[8:1],B8,7bxh[4:1]/2p5[8:1],
B1,4bxh[4:1]/7-5[8:1],7,3bxh[4:1]/7-4[8:1],
7,2bxh[4:1]/7-3[8:1],7,4bxh[4:1]/7-2[8:1],
7,3bxh[4:1]/7-1[8:1],7,5bxh[4:1]/2-4[8:1],
2,6bxh[4:1]/2-5[8:1],2,7bxh[4:1]/2-6[8:1],
2,5bxh[4:1]/2-7[8:1],2,6bxh[4:1]/2-8[8:1],
2,4bxh[4:1]/7v5[8:1],7,3bxh[4:1]/7<6-4[8:1],
7,2bxh[4:1]/7-3[8:1],7,4bxh[4:1]/7>8-2[8:1],
7,3bxh[4:1]/7v1[8:1],7,5bxh[4:1]/2v4[8:1],
2,6bxh[4:1]/2>3-5[8:1],2,7bxh[4:1]/2-6[8:1],
2,5bxh[4:1]/2<1-7[8:1],2,6bxh[4:1]/2v8[8:1],
2,(50)Cf,,,,7p6>7[32:23],
{2}C,
{4},2q3<2[32:23],{2}C,
{4},7-4-1-6-3>7[32:23],{2}C,
{32},,,,,,,,1>4[32:5],,,2,,,{16}2,{32}1qq5[16:3],,,8,,,{16}8,{32}1V35[16:3],,,4,,,{16}4,
1,{32}8,7,{16}6,6,{32}6-3[8:1],,,5,,,{16}5,{32}3>8[8:1],,,4,,,{16}4,{32}8-5[8:1],,,4,,,{16}4,
5<1[4:1],{32}4,3,{16}2,2,{32}1-3-5[4:1],,,2,,,{16}2,{32}5-7-1[4:1],,,8,,,{16}8,{32}1q5[4:1],,,2,,,{16}2,
5<1[4:1],{32}4,3,{16}2,2,{32}1-4<5[4:1],,,2,,,{16}2,{32}5-8>1[4:1],,,8,,,{16}8,{32}1s5[4:1],,,2,,,{16}2,
5,{32}4,3,{16}2,2,{32}1>1[16:3]*v3[16:1],,,1,,,{16}1,{4}A1,{32}1>1[16:3]*v4[16:1],,,1,,,{16}1,
{4}A1,{32}1>1[16:3]*v6[8:1],,,1,,,{16}1,{4}A1,{32}1>1[16:3]*v7[8:1],,,1,,,{16}1,
{4}A1,{32}6v4[32:1]/2v4[32:1],,,6v7[32:1]/2v7[32:1],,,{16}6v1[32:1]/2v1[32:1],{4}C,{32}3v5[32:1]/7v5[32:1],,,3v2[32:1]/7v2[32:1],,,{16}3v8[32:1]/7v8[32:1],
{4}C,{32}5-8[64:3]*<8[64:3],,,5-2[64:3]*>2[64:3],,,{16}5w1[64:3],{4}E6,{32}4-1[64:3]*>1[64:3],,,4-7[64:3]*<7[64:3],,,{16}4w8[64:3],
{4}E4,{32}2b>5[16:3],,,2,,,{16}2,{32}2<7[16:3],,,2,,,{16}2,{32}2z6[1.2##1.2],,,2,,,2,,
{16}2/6z2[4:1],{32}6,6,{16}6,6,{32}5<2[16:3],,,5,,,{16}5,{32}5-2-8[16:3],,,5,,,{16}5,{32}5pp1[32:7],,,5,,,{16}5,
5,{32}4,4,{16}4,4,{32}2h[16:3],,,B4,,,{16}B6,{32}3h[16:3],,,B5,,,{16}B7,{32}4h[16:3],,,B6,,,{16}B8,
5h[16:3],{32}B6,B7,{16}B8,B1,{32}6h[16:3],,,B8,,,{16}B2,{32}7h[16:3],,,B1,,,{16}B3,{32}8h[16:3],,,B2,,,{16}B4,
1h[16:3],{32}B2,B3,{16}B4,B5,(100){4}2q5[8:5],{2}C,
{4}C,7p4[8:5],{2}C,
{4}C,3-1-6[8:5],{2}3/C,
{4}C,6-8-3[8:5],{2}6/C,
{4}C,(200)2/8-4[8:13],2,2,
2,2,2,2,
2,7/1-5[8:13],7,7,
7,7,7,7,
7,6/3,6/3,5/4,
5/4,{8}5/3,2,4/6,7,2/5,1,
4/7,8,{16}4,5,3,6,4,5,2,7,3,6,1,8,
2,7,1,8,{32}E2,E3,E4,E5,E6,E7,E8,E1,E2,E3,E4,E5,E6,E7,E8,E1,B1,B2,B3,B4,B5,B6,B7,B8,
B1,B2,B3,B4,B5,B6,B7,B8,{4}B1/Cf,,,,,,,,4bh[32:55]/5b<2V86[2:3],
,,,,,,,5bh[4:7]/4b-2>3-8>1-7[2:3],
,,,,,,,4bh[4:7]/5b-8>1-6>5[2:3],
,,,,,,,5bh[4:1]/4bh[4:1],
{16},,,,6,6,{8}3,
5,4,{4}4bh[4:1]/5bh[4:1],{16},,,,3,3,{8}6,
4,5,{4}5h[4:1]/4h[4:1],{16},,,,B6,E6,{8}B5,
B4,B3,{4}4h[4:1]/5h[4:1],{16},,,,B3,E4,{8}B4,
B5,B6,{4}5h[4:1],,,,4h[4:1],
,,,5q4[8:13]/4-1<8-5[8:13],
,,,,,,,6h[8:3],
{8},5h[8:3],,,4h[8:3],
,,3h[8:3],,,{4}2h[4:1],
B4,3h[8:3],{8},4h[8:3],,,5h[8:3],
,,6h[8:3],,,{4}7h[4:1],
B5,{8}6,6,2,{16}2,3,{8}4/8,8,
8,{16}8h[32:1],7h[32:1],{8}2/6,2,5,5,4,4,
6,6,{32}2x,1x,8x,7x,6x,5x,4x,3x,2x,1x,8x,7x,6x,5x,4x,3x,A2,A1,A8,A7,A6,A5,A4,A3,
E2,E1,E8,E7,E6,E5,E4,E3,{4}E2f,,,,Ch[4:31],
{1},,,{4},,,{16}A8,
E8,B7,E7,B6,E6,A5,D5,,,,,,,,,A1,
E1,B8,E8,B7,E7,A6,D6,,,,,,,,,A1,
D1,A8,D8,,,,,A7,D7,A6,D6,
,,,,{8}1,1,7,7,8,8,
{4}8b,{8}7h[16:1]/8h[16:1],8h[16:1]/7h[16:1],6h[32:1]/1h[16:1],2h[16:1]/5h[16:1],4h[16:1]/3h[16:1],5/2,
6/1,7/8,7-5[8:1],8-4[8:1],7,8,1-5[8:1],2-4[8:1],
1,2,8b-2[8:1],5h[16:1],8-6[8:1],4h[16:1],8,3h[16:1],
5,3,6h[16:1],1-3[8:1],7h[16:1],1-7[8:1],5h[16:1],1,
4,{16}1h[32:1],2h[32:1],{8}3bx,5/4,5/4,{16}6h[32:1],5h[32:1],{32}6,,,,,4/5,,,{16}3xh[32:1],
4xh[32:1],5xh[32:1],6xh[32:1],{8}4x,{16}3h[32:1],4h[32:1],{8}2,5,{16}6h[32:1],5h[32:1],7h[32:1],5h[32:1],
{8}6,4,4-2[8:1],5-7[8:1],4,5,1-3[8:1],8,
1,{16}8h[32:1],7h[32:1],{4}6bxh[4:1]/B4f/E4/E5/A4,{8},4bh[4:1]/B7f/E8/E7/A7,,,{4}5bh[8:1]/B2f/E2/E3/A2,
{8}7-4[8:1],4V61[4:1],7,1-5[8:1],3,3,
2h[16:1],2,2-5[8:1],5V38[4:1],2,8-4[8:1],6,6,
7h[16:1],7,6-1[8:1],1v4[4:1],6,4-7[8:1],3,3,
2,2h[16:1],3-8[8:1],8v5[4:1],3,5-2[8:1],6,6,
7,7h[16:1],{16}8,7,6,5,1,2,3,4,1,8,7,6,
{4}2/5,{16}1,2,3,4,8,7,6,5,8,1,2,3,
{4}7/4,{8}8/4,7,6,5/1,2,3,
8/4,7,{32}1/5h[8:1],E2,B2,B3,{8}E4,{32},,,,8/4h[8:1],E8,B7,B6,{4}E6,
{32}5h[8:1]/1V75[4:1],E2,B2,B3,{8}E4,{16}4x/1x,3x,2x,1x,8x,7x,6x,5x,{8}7xh`B7,4,
4,2xh`B2,4,4,8xh`B8,4,{4}1xh`B1,
8V24[4:1],{16}5x/8x,6x,7x,8x,1x,2x,3x,4x,{8}2xh`B2,5,
5,7xh`B7,5,5,1xh`B1,5,8xh`B8,5,
{4}5,{8}6/4,6/4,6/4,6/4,7/3,7/3,
7/3,7/3,8/2,8/2,8/2,8/2,1,1,
1,1,{16}1,8,2,7,3,6,4,5,4,5,3,6,
2,7,{8}1,{32}8x/1bh[8:1],7x,6x,5x,,,,,1x/8bh[8:1],2x,3x,4x,,,,,{16}8,3,7,2,
6,1,5,8,1xh[32:1],2xh[32:1],3xh[32:1],4xh[32:1],5xh[32:1],6xh[32:1],7xh[32:1],8xh[32:1],1xh[32:1],2xh[32:1],3xh[32:1],4xh[32:1],
5xh[32:1],6xh[32:1],7xh[32:1],8xh[32:1],1xh[32:1],2xh[32:1],3xh[32:1],4xh[32:1],5xh[32:1],6xh[32:1],7xh[32:1],8xh[32:1],1xh[32:1],2xh[32:1],3xh[32:1],4xh[32:1],
5xh[32:1],6xh[32:1],7xh[32:1],8xh[32:1],1xh[32:1],2xh[32:1],3xh[32:1],4xh[32:1],5xh[32:1],6xh[32:1],7xh[32:1],8xh[32:1],1xh[32:1],2xh[32:1],3xh[32:1],4xh[32:1],
5xh[32:1],6xh[32:1],7xh[32:1],8xh[32:1],1xh[32:1],2xh[32:1],3xh[32:1],4xh[32:1],5xh[32:1],6xh[32:1],7xh[32:1],8xh[32:1],1xh[32:1],2xh[32:1],3xh[32:1],4xh[32:1],
5xh[32:1],6xh[32:1],7xh[32:1],8xh[32:1],{4}Cf,
E
