&title=第六天魔王
&artist=黒沢ダイスケ × Masahiro
&first=0.64
&des=小咔一百号 × 伤心键盘男
&lv_5=14.5
&inote_5=(300)
{1}4b,,,
{8},,,,3,4,2,5,7b/1b,,,,,,,,,,,,,,6,5,8b/2b,,,,,,,,
{8}4,,,,3,,,,7b/1b,,,,,,,,,,,,6,5,7,4,8b/2b,,,,
{8}3,,,,2,,,,
{8}3,4,2,,25,,36,,4,7,3,,46,,,37,,,28,,
{8}47,,36,,5,2,6,,35,,,26,,,17,,
{8}38,,27,,1,6,2,,17,,,26,,,35,,
{8}16,,27,,8,3,7,,2b-6[8:1],,,8b-4[8:1],,,5b-1[8:1],,,,,,
{8}8,7,6,5,4-7[8:1]/3-8[8:1],,34,,,,
{8}1,7,2,6,3,5,4,7,2,,5-2[8:1]/6-1[8:1],,56,,,,
{8}7,3,6,4,5,3,6,4,7,,1-6[8:1]/2-5[8:1],,12,,,,
{8}4,6,3,7,2,8,3,5,2,,
{12}5,4,3,2,
{12}7,6,5,4,3,2,7,6,5,4,3,2,7,6,5,4,3,2,,,
{8}7-4[8:1]/8-3[8:1],,78,,,,2,,6,5,7,7,3,4,2,2,
{8}5-2[8:1]/6-1[8:1],,56,,,,7,,3,4,2,2,6,5,7,7,
{8}1-6[8:1]/2-5[8:1],,12,,,,3,,7,8,6,6,2,1,3,3,
{12}1,8,7,6,
{12}3,2,1,8,7,6,3,2,1,8,7,6,3,2,1,8,7,6,,,
{8}6,,7,5,6,4,5,,2,4,3,5,4,6,5,,7,5,6,4,5,,2,,6,4,5,3,4,,2,4,3,5,4,6,5,,7,5,6,4,5,,2,,6,4,5,3,4,,
{12}2,4,3,5,4,6,
{8}17,,28,,57,,24,,
{8}3,,2,4,3,5,4,,7,5,6,4,5,3,4,,2,4,3,5,4,,7,,3,5,4,6,5,,7,5,6,4,5,3,4,,2,4,3,5,4,,7,,3,5,4,6,5,,
{12}7,5,6,4,5,3,
{8}28,,17,,24,,57,,
{8}1,,2,8,3,7,4,,6,4,7,3,8,2,1,,2,8,3,7,4,,1,,7,1,6,2,5,,3,5,2,6,1,7,8,,7,1,6,2,5,,8,,2,8,3,7,4,,
{12}3,5,2,6,1,7,
{8}24,,57,,13,,68,,
{8}5h[2:3]/4b,,,,3,,,,2,,,,1,,
{8}4,5,4h[2:3]/5b,,,,6,,,,7,,,,8,,
{8}6,5,5b/6h[2:3],,,,4,,,,3,,,,2,,,,
{12}1,2,3,45,6,7,1,2,3,45,6,7,2,3,4,56,7,8,2,3,4,56,7,8,
{8}3,,7h[4:1],,1,8h[4:1],,,2,,1,2h[8:3],,,8,,
{8}2,,6h[4:1],,4,5h[4:1],,,3,,4,3h[8:3],,,5,,
{8}6,,2h[4:1],,8,1h[4:1],,,7,,8,7h[8:3],,,1,,
{16}1,2,3,4,5,6,7,8,1,2,3,4,5,6,7,8,1,8,7,6,5,4,3,2,1,8,7,6,5,4,3,2,1h[2:3],,,,
{8},,,,,,5,,,,7,,,,
{8}8h[4:3],,2,,3,,4,,6,5,7,,2,4,3,,
{8}3h[4:3],,5,,6,,7,,2,1,3,,6,8,7,,
{8}25,,3,4,2,,47,,6,5,7,,4,5,3,,
{8}6b,57,,3b,24,,18,,
{8}5,6,4,7,3,8,
{8}2h[4:4],,8,,7,,6,,5,,
{8}2,1,3,,7,5,6,,
{12}3,4,3,,6,5,6,,,1b,,,
{8},,2,8,3,7,4,,
{12}6,5,6,,3,4,3,,,8b,,,
{8},,7,1,6,2,5,,
{8}3b,24,,6b,57,,18,,,,
{12}3,4,5,6,7,8,1,2,3,
{8}4h[4:3],,6,,7,,8,,
{8}6,5,7,,2,1,3,,
{8}8h[4:3],,5,,4,,3,,
{8}7,8,6,,3,,
{12}2,1,2,1,2,1,3,8,3,8,3,8,4,7,4,7,4,7,5,6,5,6,5,6,5,,,
{8}3b,24,,6b,57,,18,,,,
{12}6,5,4,3,2,1,8,7,6,
{8}2,2,4,3,5,4,6,5,7,7,4,8,3,1,2,8,3,3,7,4,6,8,7,1,6,6,2,5,3,4,2,5,3,1,4,8,5,7,6,8,7,1,6,2,5,3,4,2,1,3,8,4,7,5,6,8,7,1,6,2,5,3,4,2,
{12}8,7,6,45,3,2,8,7,6,45,3,2,7,6,5,43,2,1,7,6,5,43,2,1,
{8}78,,,56,,,34,,2,1,3,8,4,7,5,,
{8}5/6h[4:3],,,,,,2,,
{8}5,6,4,5,3,4,2,,
{8}4/3h[4:3],,,,,,7,,
{8}4,3,5,4,6,5,7,6,
{4}6h[4:3],1,1,
{8}1,8,
{4}2h[4:3],5,5,
{8}5,4,
{4}7h[4:3],4,4,
{8}4,5,
{4}3h[4:3],8,8,8,
{8}7,,6,,54,,3,2,1h[2:1],,,,4,,5,6,7,,12,,38,,47,,56,,78,,1h[2:1]/6,,,,5h[4:3],,,,1,,2,,3,,,,47,,5,6,2,1,3,8,5,6,4,7,1,8,2,7,3,6,4,5,3h[2:1],,,,8,,,,17,,,26,,,35,,4,,12,,3,,6,5,7,4,1,2,8,3,7,4,6h[2:1],,,,3,,
{12}2,2,2,2,2,2,1,1,1,1,1,1,8,8,8,8,8,8,7,7,7,7,7,7,8,,,1,1,1,1,1,1,1,,,,,,
{8}3,5,3,5,4,6,4,6,3,5,3,6,4,5,4,6,3,5,4,5,3,6,4,6,3,5,4,6,27,,,,
{8}6,4,6,4,5,3,5,3,6,4,6,3,5,4,5,3,6,4,5,4,6,3,5,3,6,4,5,3,27,,,,
{8}3,5,4,6,3,5,4,6,3,4,3,6,4,6,3,5,4,5,4,6,5,6,3,5,3,4,3,5,27,,,,
{8}6,4,5,3,6,4,5,3,6,5,6,3,5,3,4,3,5,4,6,5,6,4,5,3,4,3,5,4,27,,,,
{16}8,7,6,5,4,3,2,1,8,7,6,5,4,3,2,1,8,1,2,3,4,5,6,7,8,1,2,3,4,5,6,7,8,7,6,5,4,3,2,1,8,7,6,5,4,3,2,1,8,7,6,5,4,3,2,1,8,7,6,5,4,3,2,1,
{1}8h[2:3]/4b,,2h[2:3]/5b,,7h[2:7]/3b,,,
{8},,,,,2,4,5,7b,
