&title=On And On!!
&artist=ETIA. feat. Jenga
&first=0.03
&des=Saurb
&lv_5=14
&inote_5=(170)
{1},
{4}3/5,3,3,3,6/4,6,6,6,3/5-1[4:1],3,3,3,4-8[4:1]/8,7,6,
{16}5,4,5,4,6,,6,,2,1,2,,3,,3,5,,5,4,,63,,6,,7,8,7,,16,,3,4,3,,2,,
{16}6,4,6,4,7h[8:1],,1,,2,4,3,4,3h[8:1],,5,,
{8}2-5[8:1]/6,1/5-1[8:1],2,6,7h[4:1],,
{16}1-5[8:1],8,2,8,1b,,,,
{8}6-1[8:1],6,4-8[8:1],3,2/4,2,1b-5[8:1]/7bh[4:1],,,8-3[8:1]*-5[8:1],,8b<2[4:1],,6h[4:1]/8b,,,7,7,46,3,2-4[8:1],17,2-8[8:1],6,2/7-5-8-4[8:3],7,2h[8:1],,2-6[8:1],,2b/6b,,
{8}7-1[8:1],7,5-8[8:1],4,53,3,1b-5[8:1]/2bh[4:1],,,3-8[8:1]*-6[8:1],,3<1[4:1],,3/5h[4:1],,,
{16}6,,7,,28,,3,,45,,6,,17,,2,,35,,2-5[8:1]/8-5[8:1],,,,2b/8b,,,,,,
{16}8-4[8:1],,,,8b/6b,,,,
{8}5-1[8:1],6,7/5,7,8b-4[8:1]/2bh[4:1],,,1-6[8:1]*-4[8:1],,1b>7[4:1],,3h[4:1]/1b,,,2,2,53,6,7-5[8:1],82,7-1[8:1],3,7/2-4-1-5[8:3],2,7h[8:1],,7-3[8:1],,7b/3b,,
{8}2-8[8:1],2,4-1[8:1],5,46,6,8b-4[8:1]/7bh[4:1],,,6-1[8:1]*-2[8:1],,6,,
{32}3,4,5h[32:10],,,,,,,,,,1,8,7h[32:10],,,,,,,,,,8,1,2h[32:10],,,,,,,,,,5,4,3h[32:10],,,,,,,,,,Ch[8:5],,,,,,,,,,,,,,,,,,,,
{1}1>1[1:1],{8}C,,,,,,,4-1-6q4[2:3],,,,,,,,,,,,,,,,,1>1b[1:1],,,,,,,,C,,,,,,,6b>3-7>2b[2:3],,,,,,,,,,,,,,,,,
{8}2b/8b,4,3,5,4h[4:1],,7,5,6,4,5,2,2-7[4:1],,,6,,5,5,5h[4:1]/3,,2,8,1,1-5[8:1],,2,3-8[8:1],,7b>5[2:1],,2h[2:1],,,,,,,2V48[4:1],2,,,,,7,7,6,4,5-1[8:1],,,2,2-5[8:1],,,7b,7b/Ch[4:3],,,,,,,,
{16}
{4}6b/2hb[4:5],5,5,4,4,5,{16}3,4,3,4,3,,3,,
{4}6hb[4:6]/4,4,5,5,4,4,{8}5,5,6,6,
4x/6,3,3,3,4/6x,7,7,7,8x/4,3,3,3,2x/5,6,6,6,
7x/5,5,6x/4,6,3x/5,3,2x/4,5,35,1,47,52,{32}1b,8,7,6,5,4,3/6x,2/7x,1bz5[16:1]/8xbs4[16:1],,,,,,,,{16}1b/8b/Cf/B2/B3/B6/B7,,,,
{16}3,4,3,4,2h[8:1],,8,,17,,26,,3,3,6,4,7h[8:1],,1,,2-5[8:1]/8,,1-6[8:1],,2,,1,,
{16}3h[4:1],,,,7,7,4,6,4-8[8:1],,3,,2/4,,2h[8:1],,7,7,3,5,2-8[8:1],,7-5[8:1],,2V48[4:1],,7,,2,,7,,6bh[4:1],,,,1,1,7,7,2,2,6,6,3,3,5,5,
{16}4-8[8:1],,6,,4,,6,,7-3[8:1],,3V58[4:1],,7,,2,,1h[8:1],,,,2,2,5,4,6-1[8:1],,1-5[8:1],,6/2-4[8:1],,3,,2,,6,6,2,8,2,,3-8[8:1]/7,,4-7[8:1],,3,,4,,2h[4:1],,,,
{16}7,,7,,3,,3,,46,,35,,2,,28,7,64,3,2,1,7,6,5,4,8,1,2,3,4h[8:1]/6-1[8:1],,,,63,,,,2-5[8:1]/7h[8:1],,,,28,,,,37,,4,5,4,6,5,6,3,5,4,6,{24}1,2,3,8,7,6,53,,,
{16}4,4,4,4,4,4,4,4,4,4,4,,35,,26,,1,1,7,8,7,,16,,2,,35,,6,,1-5[8:1]/7h[8:1],,,,1/3,,,,4-8[8:1]/6h[8:1],,,,45,,,,17,,1,,1,,1,,1h[4:1],,,,,,,,
{48}1b/8b,2x/7x,3x/6x,4x/5x,,,,,,,,,
{16}7-3[8:1],1,8,2,7<4[8:1],,1,,7,,1,,2b-8[8:1],,8,,2,,7-4[8:1],,6,,7/8>3[8:1],,,,{24}7bx/8bx,6x,5x,4x-8[8:1],,,,,,4x,,,3,,,
{16}3,,6-4[8:1],,2-4[8:1],,6,,2-8[8:1],,8-3-7[4:1],,2,,6h[4:1],,,,,,6,,78,,
{48}8b/7b,1x/6x,2x/5x,3x/4x,,,,,,,,,
{16}
{16}2-6[8:1],8,1,7,2>5[8:1],,8,,2,,8,,7b-1[8:1],,1,,7,,2-5[8:1],,3,,2/1<6[8:1],,,,{24}2bx/1bx,3x,4x,5x,,,5x,,,{16}4,5,4,6,5,6,3,5,4,7,5,6,3,4,2,6,5,7,{32}1b,2,3,4,,,,,1b,2,3,4,5-1[8:1],,,,,,,,,,,,,,,,
{48}8b/2b,3x/7x,4x/6x,5x,,,,,,,,,
{16}2-6[8:1],8,1,7,2,,8,,7b-1[8:1],,1,,7,,2-5[8:1],,3,,2/1<6[8:1],,,,{24}2bx/1bx,3x,4x,5x-1[8:1],,,,,,5x,,,6,,,
{16}6,,3-5[8:1],,7-5[8:1],,3,,7-1[8:1],,1-6-2[4:1],,7,,3h[4:1],,,,,,3,,21,,
{48}1b/2b,8x/3x,7x/4x,6x/5x,,,,,,,,,
{16}
{16}7-3[8:1],1,8,2,7<4[8:1],,1,,7,,1,,2b-8[8:1],,8,,2,,7-4[8:1],,6,,7/8>3[8:1],,,,{24}7bx/8bx,6x,5x,4x,,,4x,,,{16}5,4,5,3,4,3,6,4,5,2,4,3,6,5,7,3,4,2,{32}8b,7,6,5,,,,,8b,7,6,5,4,,,,,,,,
{8}2,2,4,4,35,3,26,2,17,17,28,28,35,35,24,24,
{16}1,3,2,4,3,5,4,6,1,7,3,5,1-5[8:1],7,3,5,1bw5[2:1]/C,,,,
