&title=不死身の訓練
&artist=ずっと真夜中でいいのに。
&first=0.15
&lv_5=13
&des_5=-NICOLABULA-
&inote_5=
(98.5){4},{8},4h[4:3]/7-4[8:1],{4},{8},3-6[8:1],
{4},{8},5h[4:3]/2-5[8:1],{4},{8},6-3[8:1],
{4},{8},4h[4:3]/7-4[8:1],{4},{8},3-8[8:1],
{4},{8},4-1[16:1],8-5[16:1],4/7h[8:1],,6h[8:3]/4h[8:3],
{4},{8},{16}4/6,3,5,2h[8:1],,4,{8}2,{16}5/3,6,
4,7h[8:1],,5,{8}7,{16}4/6,2,5,1h[8:1],,4,{8}3,{16}5/3,7,
4,8h[8:1],,5,{8}6,{16}6,5,4-7[16:1],3,,2h[16:1],{8}4,{16}3,4,
5-2[16:1],6,,7h[16:1],{8}5,{16}7,8,1-6[16:1],2,,3h[16:1],{8}1,{16}2,1,
8-3[16:1],7,,6h[16:1],{8}8,6h[16:3],{16}4,3h[16:3],,8,7,6,{8}5h[8:1],
{16}8,1h[8:1],,4,{8}5h[8:1],4h[8:1],{16}8,7h[8:1],,4,3,2,{8}1h[8:1],
{16}4,5h[8:1],,8,{8}1h[8:1],6h[8:1],{16}4,6/3h[16:3],,8,7,6,{8}3/5h[8:1],
{16}8,5/1h[8:1],,4,{8}2/5h[8:1],4h[8:1],{16}8,5/7h[8:1],,4,3/7,2,{8}5/1h[8:1],
{16}4,1/5h[8:1],,8,{8}6/1h[8:1],{16}7b,{32}5,5,{16}6,4h[8:1],,5,{8}5,{16}2b,{32}4,4,
{16}3,5h[8:1],,4,{8}4,4/7h[8:1],{16}5-3[16:1],7/4h[8:1],,8,{8}5/7h[8:1],2h[8:1],
{16}4-6[16:1],2/5h[8:1],,1,{8}2/4,8h[8:1],{16}5>2[16:1],7/4h[8:1],,8,{8}5/7h[8:1],1h[8:1],
{16}4<7[16:1],2/5h[8:1],,1,{8}4/2h[8:1],8h[8:1],5h[8:1],4h[8:1],2h[8:1],{16}4,3/5h[8:1],
,3,,5/7,{8},8/6,7/1<6[16:3],2/8,3/1,1,
8>3[16:3],7,6/8,7,8<5[16:3],1,2/8,1,
8>3[16:3],6,5/8,6,7-2[8:1],8,7/3-6[8:1],4,
3/1-6[8:1],8,1/5>2[8:1],4,5<8[8:1],6,5,1-6[8:1]*-4[8:1],
2/8,1,,4/5-8[16:1],{16}3,2,{8}5/1<6[16:1],{16}3,4,{8}1/5,
{16}4,3h[8:1],,6,{8}5<8[16:1],1-4[16:1],{4}5/2h[8:1],{16}2,2h[16:3],,8,
7,6,5,1,2,3,{8}5/4-1[16:1],{16}6,7,{8}4/8>3[16:1],{16}6,5,{8}8/4,
{16}5,6h[8:1],,3,{8}4>1[16:1],8-5[16:1],{4}4/7h[8:1],{16}7,7h[8:1],,1,
2,3,{8}4/5,8/2h[8:1],{32}5-8[16:1],{16},{32}3,{16}3,2,{8}5/1<6[16:1],{16}3,4,{8}1/5,
{16}4,3h[8:1],,6,{8}7-4[16:1],8/3<6[16:1],{4}7/2h[8:1],{16}1,1h[16:3],,5,
6,7,8/1,2,3,4,{32}4-1[16:1],{16},{32}6,{16}6,7,{8}4/8>3[16:1],{16}6,5,{8}8/4,
{16}5,6h[8:1],,3,{8}2-5[16:1],1/6>3[16:1],{4}2/7h[8:1],{16}8,8h[16:3],,4,
3,2,{8}1h[8:1],5-8[8:11],3b,{1},{4},{16},,,1,
2,3,{8}4h[8:1],7,8b/4h[8:1],{16}8,7h[8:1],,5,{8}4h[8:1],7b,
{16}7,6h[8:1],,4,{8}3h[8:1],6b,{16}6,5/7h[8:1],,3,{8}5/2h[8:1],5b,
{16}5,4/7h[8:1],,4,{8}5/2h[8:1],8b,{16}2-4[16:1],1,,1,{8}2,7b,
{16}7-5[16:1],8,,8,{8}7,1b,{16}2-5[16:1],8,,8,{8}2,6b,
{16}6-1[16:1],4,,4,{8}6,4h[32:3],{16},4h[8:1],{8},4h[16:1],{32}8/6,{16},{32}6/8,
{16},8h[8:1]/6h[8:1],{8},8/6,6h[16:1]/4h[16:1],{16},4h[8:1]/6h[8:1],{8},4h[16:1]/6h[16:1],{32}7/5,{16},{32}5/7,
{16},5h[8:1]/7h[8:1],{8},7/5,8h[32:3]/1h[32:3],{16},1/8,,2,4,3,{32}5/2,{16},{32}5/2,
{16},5h[8:1]/2h[8:1],{8},5/2,1-3[16:1],3-5[16:1],5,8-6[32:3],{16}6-4[32:3],6,
,3,,2h[16:3],{8},3b,{16}2/4,5/3,,7/5,{8}6h[16:1]/4h[16:1],{24}6/4,,4/6,
,4/6,,4/6,,6/4,,6/4,,{8}4b/6b,{16}7/5,4/6,,2/4,{8}5h[16:1]/3h[16:1],{24}5/3,,3/5,
,5/3,,3/5,,5/3,,3/5,,{8}5b/3b,{16}2/4,5/3,,7/5,{8}4/6,1/2,
{16}2/4,5/3,,7/5,{8}4/6,8-6[12:1],6-4[12:1],4,1-3[12:1],{16}3-5[12:1],3,
,6,,8,{8},8/3,2/8>3[16:3],7/1,6/8,8,
1<6[16:3],2,3/1,2,1>4[16:3],6,1/7,8,
1-6[16:1],3,4/1,{32}3,5,4,5,3,5,4,5,3,5,4,5,3,5,4,5,3,5,4,5,
3,5,4,5,3,5,4,5,3,5,4,5,{8}3h[8:1],4h[8:1],2h[8:1],8h[8:1],1-4[16:1]*-6[16:1],
8/2,1b,,4/5-8[16:1],{16}3,2,{8}5/1<6[16:1],{16}3,4,{8}1/5,
{16}4,5/3h[8:1],,4,{8}3/5<8[16:1],1-4[16:1],5/2h[8:1],1,{16}2,2h[16:3],,8,
7,6,5,1,2,3,{8}5/4-1[16:1],{16}6,7,{8}4/8>3[16:1],{16}6,5,{8}8/4,
{16}5,4/6h[8:1],,5,{8}6/4>1[16:1],8-5[16:1],4/7h[8:1],8,{16}7,7h[8:1],,1,
2,3,{8}4/5,8/2h[8:1],{32}5-8[16:1],{16},{32}3,{16}3,2,{8}5/1<6[16:1],{16}3,4,{8}1/5,
{16}4,5/3h[8:1],,6,{8}5/7-4[16:1],8/3-8[16:1],7/2h[8:1],3,{16}4,4h[16:3],,5,
6,7,8/1,2,3,4,{32}4-1[16:1],{16},{32}6,{16}6,7,{8}4/8>3[16:1],{16}6,5,{8}8/4,
{16}5,6h[8:1],,3,{8}2-5[16:1],1/6-1[16:1],2/7h[8:1],6,{16}5,5h[16:3],,4,
3,2,{8}1h[8:5],{32}5,{16},{32}5h[32:13],{2},{16}4/6b,3,
5/2h[16:3],5,,4,{8}2,{16}5/3b,6,4/7h[16:3],4,,5,{8}7,{16}4/6b,2,
5/1h[16:3],5,,4,{8}3,{16}5/3b,7,4/8h[16:3],4,,5,{8}6,{16}6b,5,
4-7[16:1],3,,2h[16:1],{8}4,{16}3b,4,5-2[16:1],6,,7h[16:1],{8}5,{16}7b,8,
1-6[16:1],2,,3h[16:1],{8}1,{16}2b,1,8-3[16:1],7,,6h[16:1],{8}8,5<8[8:1],
8>3[8:1],4,4,4-1[8:1],1-6[8:1],5,5,5-8[8:1],
5,1-4[8:1],1,7-2[8:1],7,5,4,3/5<8[8:1],
1,5>2[8:1],3,5<8[8:1],7,5>2[8:1],3,5/8-3[8:1],
6,8/5>2[8:1],7,5/8-3[8:1],7,5/8,6,5<8[8:1],
8>3[8:1],4,4,4-1[8:1],1-6[8:1],5,5,5-8[8:1],
5,5/1-4[8:1],1,1/7-2[8:1],7,7/5,4,3/5<8[8:1],
{16}1,1,{8}5>2[8:1],{16}3,3,{8}5<8[8:1],7,5>2[8:1],3,5/8-3[8:1],
6,8/5>2[8:1],7,5/8-3[8:1],7,5/8,{16}6,6,4,3,
2,1,{8}8h[8:1],1h[8:1],2h[8:1],3h[8:1],4-8[8:3],
