&title=人間になりたい
&artist=いめ44
&first=0.02
&des=MTOC
&lv_5=13+
&inote_5=(108.5),,,,
{8}5h[8:1],{16},3,5,,2,4,1-5[8:1],,4,,6,,7,4,8,,2,5,1-5[8:1],,7,,4,,6,4,6,,3,5,3/4-8[8:1],,,,
{8}2h[8:2],,6h[8:1],3h[8:1],7h[8:1],2h[8:1],8h[8:6],,,6,4,2,1<1[8:8],,,,E4,E6,Ch[8:4],,,,,,
5h[8:2]/2-6[8:1],,2,4<7[8:1],8v3[8:1],4,,
{16}6,,2,5,2,4,3h[8:2]/5,,,,
{8}4-1[8:1],,,5-8[8:1],,,6x<3[8:2],,,5,6,74,4h[8:2]/7-3[8:1],,7,5>2[8:1],1v6[8:1],5,,,3-1-7[8:3],6,4,
5,5h[8:3],,,,3/E8,2/E7,1w5[8:2]/E6,,,,,27,
18,2qq5[8:2],7,2,6,6,{16}37,,4,6,4,,6/2h[8:1],,7,63,54,,
{8}5pp1[8:6],,5,4,4,3,2h[8:2],,,37,26,26,5/1pp1[8:4],,6,5s1<7-5[8:5],7,5,,3x-7[8:1],4x,3x,,
{16}2,4,35,,47,,62,3,47,6,5-8[8:1]/2-5[8:1],,36,,52,,
{8},,12,38,{16}47,56,
{8}56,7-1-5[8:2],52,74,4pp4[8:2]*qq4[8:2],,4,,8,8h[8:1],,
3,3h[8:1],5,5h[8:1],,1pp4[8:5],6,51,,5x<8[8:1],6x,5x,,
{16}6,8,71,,83,,26,7,83,2,1-4[8:1]*-6[8:1],,3-7[8:1],,1,,3x,,5,,,,
{8}1h[8:2],6hb[8:1],,1h[8:2],7hb[8:1],,8w4[8:1],17,{16}8b,C,,,{8},,C,
{8}3>1[16:1],5,3,5,{16}62,73,84,,
{8}6<8[16:1],2,{16}1,2,3,,47,36,25,,
{8}2-4[16:1],7,{16}5,6,7,,83,72,61,,
{8}7-5[16:1],1,7,1,{16}26,37,48,,
{8}8qq8[8:2],,83,3h[8:1],,36,7-4[8:1],8,1,2-7[8:1],3,4,5w1[8:2],,,,,,
{32}1b,2,3,4,5,6,7,8,
{8}1/Cf,5b-7-4[8:1],4b-6-1[8:1],3b/5x,
2h[8:2],,8-6[16:1],2/8-4[8:1],83,1/8,2hb[8:2],,8-6[16:1],2/8-4[8:1],83,18,
1-3[16:1],8-4[8:1],1-5[8:1],8-6[16:1],1>6[8:2],8,1b,8x,,
7h[8:1],2v5[8:1],7,2/1b<6[8:1],,
{32}1/5x,,,,5b,4,3,2,1-5[8:1],8,7,6,5,48,37,26,5b<8b[8:1]/1b,,,,,,,,
{8}1b/5x,{32}1b,2,3,4,5,6,7,8,1-5[8:1],26,37,48,
{8}5b/1,1bx/5x,3b,6b/E4,1b/E7,8b/E3,2b/Cf,,,
{32}1b,8,7,6,5,4,3,2,
{8}1/C,2-4-8[8:2]/5x,47,{16}2/5pp5[8:2],,,,5x,1bx,,,
{8}2-4-8[8:2]/5x,47,{16}2/5pp5[8:2],,,,5x,1bx,,,
{8}2-8[16:1],7-5[16:1],2-5[8:1],7-3[8:1],2w6[8:1],7,2b,,8h[8:1],,
17,26,3h[8:2]/5h[8:1],,5<7-1[8:2],73,{16}5,2b,2,,
{8},18,2>4-6[8:2],48,{16}2,7b,7,,
{8}4/8h[8:1],,4>8[8:1],8p4[8:1],4p8[8:1],8<4[8:1],4>8[8:1],,,6b,,37,4-8b[8:8]/5,
,3,5,2,6,1,7,2,6,,,
{48}1b/Cf,2,3,4/5x,,,,,,,,,,,,,,,7b/Cf,6,5,4/3x,,,,,,,,,,,,,,,1b,28,37,46,5b,,
{8},,3h[8:2]/6h[8:2],,,25,25,47,47,83,38,16,16,27,38,4h[16:1]/1h[16:1],3h[16:1]/8h[16:1],2h[16:1]/7h[16:1],1h[16:1]/6h[16:1],
{16}4bh[16:1]/8bh[16:1],,51,51,62,62,37,73,
{48}48,3,2,1,8,7,6,5,4,3,2,1,
{8}8b/4b,C,,,
{16}3,,5,4,,,6,,4,5,,3,,4,6,,,,5,,3,,
{32}6,E6,B5,B4,E4,
