&title=Ordirehv
&artist=Feryquitous
&first=0
&des=Noka
&des_5=
&lv_5=14
&inote_5=(191){4},,,,6V48[2:3],
{2},{4}2V46[4:3],
{1},{4}6V82[4:3],
{2},{4}2V86[2:1]*<3[8:7],
{1},{4}1s5[4:3],
{2},{4}5<1[2:1]*>1[2:1],
{1},{4}4V68[4:3],
{2},{4}8V24[8:3]*>8[4:3],
{1},{4}3p6[4:3],
{2},{4}5h[8:7],
{8},,,,,6<4[8:5],{4},5h[4:3],
{2},{4}4V28[8:3]*>4[4:3],
{1},{4}2h[8:5]/4V26[1:1],
{2},{4}1h[8:7],
,,,6,
5h[8:5]/7V51[8:9],{2},{4}4-2[8:3],
{8},,,,,8h[4:1],,{16}1,2/7,
{4}3-5[8:1]/6-4[8:1],{2},{4}1h[8:3]/8qq3[4:3],
,2h[8:3],{2},{8}2V46[4:3],
{4},{8}4-6[8:3],{4},8pp5[4:3],
,4h[8:3],{2},{8}1q7[8:3],
{4},{8}7>5[8:5],{4},6p2[4:1],
,,,7/8,
{8}1q7[8:3],{4},{8}7>5[24:11],{4},4<8[24:7],
,{8}5,5,,1/6>3[8:1],{4},2h,
{16}2,4,3,4,5,4,5,4,{4}3b,
{8}6h[4:1],5,5,7,4h[4:1],5,5,3,
2/4,5,6/4,4,3/5,5,{4}2/7,
{8}3h[4:1],4,4,2,5h[4:1],4,4,6,
7/5,4,3/5,6,7/4,3,{4}8/2,
{8}6,5,4/7,8,3,4,5/2,3,
6/4,6,5/3,3,4/6,7,{4}1/8,
{8}3,4,5/2,1,6,5,{4}4/7,
{16}3,4,{8}3,{16}6,5,{8}6,{16}2,8,1,8,{4}2z6[16:7]/7s3[16:7],
2b/7b,{2},{4}1b/8b,
{8}6/5V37[4:1],4,{4}3/5,,1/8,
{8}2-5[8:1],1,2,7,6V48[4:1],4-2[8:1],{4}6,
,8/1s5[4:1],{8}5v2[8:1],5,{4},{8}7<4[8:1],
8,1,2<7[8:1],3,4,5>2[8:1],6,
7pp1[4:1],8p4[16:3],{2},{4}1/6,
{8}2>5[8:1],1,8,7>2[8:1],6,5,4<7[8:1],3,
2V47[2:1],1>6[8:3],{4},,,8b/1b>7[1:1],
{2},{4}5p4[4:3],
{1},{4}8<2[1:1],
{2},{24}1,2,{6}3q5[3:2],
{1},{4}8<2[1:1],
{2},{4}4qq5[4:3],
{1},{4}1>7[1:1],
{2},{24}8,7,{6}6pp4[3:2],
{1},{4}1>7[24:23]/4<7[4:1],
{2},{4}8qq5[4:3],
{1},{4}7<1[24:23]/4>1[4:1],
{2},{24}8,1,{6}2pp5[3:2],
{1},{4}7<1[24:23]/4>1[4:1],
{2},{4}8pp5[4:3],
{1},{4}5<1[16:5]/4>1[16:5],
{2},{4}3h[16:3]/7h[16:3],
{8}3h[16:1]/7h[16:1],3h[16:1]/7h[16:1],3h[16:1]/7h[16:1],3h[16:1]/7h[16:1],,8/2,{16}2-4[8:1],1,3,8,
{4}2b,{16}6,5,6,5,7,6,5,2,3,4,{8}5/6h[8:1],
{16},6h[8:1],{8},4/6,{16}7,5,{8},{24}6,5,4,{4}3q7[8:1],
3/1,{24}2,3,4,6,7,8,{16}2,3,4,7,6,5,{8}4/3h[8:1],
{16},3h[8:1],{8},{16}5,3,7,1,{8},{24}8/2,7/3,6/4,{4}5v7[8:1]*p1[8:1],
5,{16}3,8,4,6,2,3,4,7,6,5,{8}4/3h[8:1],
{16},3h[8:1],{8},5/3,{16}4,4,{8},{24}3,4,5,{4}6p2[8:1],
6/8,{24}7,6,5,3,2,1,{16}7,6,5,2,3,4,{8}5/6h[8:1],
{16},6h[8:1],{8},{16}4,6,2,8,{24}1,2/7,3/6,4/5,{3},{32}5/4v1[32:5],
3/6v1[8:1],2/7,1/8,{8},,,{16}7,6,5,3,2,1,{8}8/4h[8:1],
{16},4h[8:1],{8},2/4,{16}1,1,{8},{24}6/3v2[8:1],4,5,{4}6v7[8:1],
,{24}1,2,3,7,6,5,{16}2,3,4,6,7,8,{8}1/5h[8:1],
{16},5h[8:1],{8},{16}1,5,7,3v6[16:3],{8}1v6[8:1],3b,{4},{32}8/1v4[32:5],
2/7v4[8:1],3/6,4/5,{8},,,{16}2,3,4,5,6,7,{8}8/1h[8:1],
{16},1h[8:1],{8},1/7,{16}2,2/8,{8},{24}2/4,3/5,4/6-3[6:1],{4}5/7p3[8:1],
7b,{24}1,2,3,4/8,7,6,{16}5/1,2,3,4,5,6,{8}7/1h[8:1],
{16},1h[8:1],{8},{16}6,1,8,3v8[8:1],7v4[8:1],4,{8}6b,{4},{2}2s6[4:1],
8,
{8}2b/5b,{16}3,4,{8}3,{16}6,5,{8}6,7,8/1,2-5[8:1],
5v8[8:1],2,{4}8,{8}7,6,5/1,1/5,
2/6,3,7/4,8,5>2[8:1],5<7[8:1],{4}5,
1-5[8:1],1/8,{16}4,6,4,6,3,5,3,5,
{8}2,1/8,7,6/5,4-8[8:1],8>3[8:1],{4}4,
{8}5,6,{4}4/7pp3[8:3],{8}4,4,5,5>2[8:1],
1,8,7,6,2-5[8:1]*>4[8:1],4-8[8:1],{4}2,
,{8}7/1v7[8:1],1/7V15[4:1],{2},{8}4h[2:1]/7h[2:1],
{4},,,{8}1>4[8:1]/7<4[8:1],
,1b/7bs3[4:1],{2},{4}1-5[8:1],
1b/8b,{8}7,4/6,2>5[8:1],2<8[8:1],{4}2,
4-8[8:1],4/8,{16}1,7,1,7,2,8,2,8,
{8}3,4/5,6,7/8,1-5[8:1],5>2[8:1],{4}1,
{8}8,7,{4}1/6qq3[3:1],{8}8,8,1,1>4[8:1],
5,6,7,8,3-8[8:1]*>1[8:1],1-5[8:1],{4}3,
,3/7,{24}4-7[8:1]/6-3[8:1],3/7,{12}8/2,{3},{32}1b,
2,3,4,5,6,7,8,1,2,3,4,5,6,7,8,1,2,3,4,5,6,7,8,1,2,3,4,5,6,7,8,
1,2,3,4,5,6,7,8,{4}1/5,{8}2/5,{16}3,4,{8}3,{16}6,5,
{8}6,{16}4,5,{8}2,{16}7,1,{8}6,{16}1,8,{8}3/7,4,
6,5,2/4,1,7-5[8:1],5V37[4:1],{4}7,
{8}2,1,8/2,{16}3,5,{8}2,1,1/8,{16}6,4,
{8}7,8,8/2,{16}2,4,{8}3,5,{4}1/6,
{16}2,5,4,5,4,5,4,5,4-7[8:1]*-1[8:1],5,4,5,{4},{8}8/2,
7/3,{4}6-2[8:1]/4-8[8:1],{2},{32}1b/8bv7[16:3],
7b/2b,6b/3b,5b/4bv3[16:3],{8},,,,,{4}1b/5b,
{8}2/4V61[4:1],5,{4}6/4,,8/1,
{8}7-4[8:1],8,7,2,3V51[4:1],5<8[8:1],{4}3,
,1/8z4[4:1],{8}4v7[8:1],4,{4},{8}2>5[8:1],
1,8,7>2[8:1],6,5,4<7[8:1],3,
2qq1[4:1],1V35[16:3],{2},{4}8/3,
{8}7<4[8:1],8,1,2<7[8:1],3,4,5>2[8:1],6,
7V51[2:1],8<3[8:3],{4},,,8b/1h[4:3],
{2},{4}2h[8:7],
{1},{4}7/5h[4:3],
{2},{4}4h[8:7],
{1},{4}1/5h[4:3],
{2},{4}7h[8:7],
{1},{4}2/5h[4:3],
{2},{4}4h[8:7],
{1},{4}8<2[2:7],
{2},{4}3h[8:7],
{1},{4}2h[2:1],
{2},{4}1h[8:7],
{1},{4}1>7[2:7],
{2},{4}6h[8:7],
{1},{4}7h[2:1],
{2},{4}8qq5[1:1],
E
