&title=我想吃辣条!!!!!
&artist=L350iR; 漂流小岛; 洛天依; SADRECORDS
&first=0
&des=おめが
&lv_5=13+
&inote_5=(190)
{4},E7,E3,E5,E1f,
{8}2-4[8:1]/7,2,5-1[8:1],5,3,2,1x/8-4[8:1],8,3-1[8:1],3,5,6,7/8,1,2/4,5,6-8[8:1]/3,6,1-5[8:1],1,7,6,5x/4-8[8:1],4,7-5[8:1],7,1,2,3/4,5,6/8,1,2h[8:1]/8,E8/B7,2h[8:1],E7/B6,2h[8:1],E6/B5,3x/4x,3/4,2-8[8:1]/5,2,7-3[8:1],7,4-6[8:1],4,7h[16:1],7h[16:1],8h[8:1],E6/B5,8h[8:1],E5/B4,8h[8:1],E4/B3,1x/2x,1/2h[8:3],,4,5,
{16}6,5,
{8}7,1/8,2b/7b,,3h[4:1]/4,,8,,7,5/6,4,4>1[4:1],,1<6[4:1],,6>3[4:1],,1,8,7,2-7[8:1]/6-3[8:1],,2/6,,4/8,1/5>1[4:1],,1<5[4:1],,5,,1h[4:1],,
{32},E6,B6,B7,
{8}E8,B3/B2,1x-4[8:1]*-6[8:1],,C,,2-4v5-7[8:3],2,,1,,8,,7x<2[4:1],,2/7,,1,1h[8:1],,2/8,2h[8:1]/8h[8:1],,3/7,3h[8:1]/7h[8:1],,4/6,4h[8:1]/6h[4:1],,4,4h[4:1]/6h[8:1],,6h[16:3],4,3/7,8,1/2,2,2/4,5,6/4,7,3/8-4[8:1],8,2-6[8:1],2,5,5,4/5,3,2/6,4,3/7,8,1,2/6,4-2<7-5[8:3]/5-7>2-4[8:3],4/5,,,,,,3/6,4/5,3h[4:1]/6h[4:1],,,2/7,3,4h[4:1]/5,5,6,5/7h[4:1],8,1,2/8,3,4/5,6,7/8,1,2-5[8:1]/8,,2/8-4[8:1],,3-8[8:1]/8,,3/5,6h[4:3],,7h[8:1],,5h[8:1],,3,
{4}1/7,2h[4:3]/E1,E3,E5,7h[4:3],8>5[2:1],,,6,7h[4:3]/E5,E3,E1,2h[4:3],1<4[2:1],,,3,2h[4:3]/B4,B3,B2,B1,7h[4:3]/B8,B7,B6,B5,
{8}3,3,2/8,2,1/7,1,2/8,8,1/7<2[4:1],,,,Ch[8:1],,1b/8b,,2-8[8:1]/7,3/4,2,5,6-4[8:1]/1x,7/8,6,1,2-4[8:1],2,1-5[8:1],1,3,2,1/8,7,6-4[8:1]/3,7/8,6,1,2-8[8:1]/5x,3/4,2,5,6-8[8:1],6,5-1[8:1],5,7,6,5/4,3,2-5[8:1]/8,1,2/8-4[8:1],1,4/8,3,2-6[8:1]/6,1/7,2/6,7,8-4[8:1],1/2,8,3,
{16}2,3,2,3,
{8}1-5[8:1],8,1/7-4[8:1],8,4/7,3,2/6,1h[4:1],8,7,2/6,4/5,3/7,
{24}2x,8x,2x,8x,2x,8x,
{8}1,3h[8:1]/7x,B7,3h[8:1]/6x,B6,3h[8:1]/5x,B5,
{16}2pp4[16:3],4,2,4>1[8:1],
{8}2,7,8-5[8:1]*<6[8:1],8,8-3[8:1]*>2[8:1],,8,,8h[8:1]/4x,B4,7h[8:1]/4x,B4,6h[8:1]/4x,B4,
{16}7qq5[16:3],5,7,5<8[8:1],
{8}7,3,2-6[8:1],1,2/8x-4[8:1],,3/8,2,1h[8:3]/5,6,7,8h[8:3],1,2,3,4,5/6,7,1/8,2,3/4,5/6,
{16}1,8,1,8,2/7,,3,4,2,6,5,7,1,8,2,7,3,6,4,5,3/6,,2,1,3,7,8,6,
{8}4z8[8:1]/5s1[8:1],3/6,4b/5b,,2h[8:7]/7,,,4,,4,,5h[8:3],,1,,2qq5[4:1]/8pp5[4:1],1,2/8,,,4/6,,2,1/7,6,4/5-1[8:1],3,1-5[8:1],,5-1[8:1],,1-5[8:1],,,,3/7,2h[4:1]/8,,3h[4:1],,4,4h[4:1],,5h[4:1],,6h[4:1],,7h[4:1],,8h[4:1],,
1,1h[8:1],,2/8,2h[8:1]/8h[8:1],,3/7,3h[8:1]/7h[8:1],,4/6,4h[8:1]/6h[4:1],,3,3h[4:1]/5h[8:1],,5h[16:3],3,6/2,1,8/7,7,7/5,4,3/5,2,6/1-5[8:1],1,7-3[8:1],7,4,4,5/4,6,7/3,5,6/2,1,8,7/3,5-7>2-4[8:3]/4-2<7-5[8:3],5/4,,,,,,6/3,5/4,6h[4:1]/3h[4:1],,,7/2,6,5h[4:1]/4,4,3,4/2h[4:1],1,8,7/1,6,5/4,3,2/1,8,7-4[8:1]/1,,7/1-5[8:1],,6-1[8:1]/1,,6/4,3h[4:3],,2h[8:1],,4h[8:1],,6,
{4}8<5[8:3]/2,1,2,3/C,4>1[8:3],5,6,7/C,8<5[8:3],1,2,3/C,4>1[8:3],5,6,7/C,8<1[8:15],B1,B2,B3,B4,B5,B6,B7,B8,
{8}8,8,1/7,1/7,2/6,2/6,3/5,3/5,B6/B7,B3/B2,C,
{16}E6,E5,
{8}E4,C,E8/E2/A8/A1,,Ch[1:1],,,,,,,,E7/B6,B2/E3,E1/B8,E5/B4,E7,C,E3,,Ch[2:3],,,,,,,,,,,,,1b,1b,,
{16}2/8,,2,4,3,,2,,1/5,,3,,4/8,,6,,3/5-8[8:1],,3/5,,2,,1,,1/7,,7,5,6,,7,,
{8}2/8h[4:1],,4,3/5,2/6,1/7pp5[4:1],8,2/7,,3,2/4,6,5/7,
{24}1x,8x,1x,8x,1x,8x,
{16}1x,
{128}E8,E2,B7,B2,B6,B3,E6,E4,
{8}3x/5x,
{16}2x,2x,
{8}1-3<4[8:1],8,1-7<6[8:1],6,1,5,4x-7[8:1]/3x,4,1-5[8:1],1,1/8,7,
{16}6,4,5,3,2x/8,,7,7,
{8}8<7-5[8:1],1,8>1-3[8:1],3,8,4h[4:1],5,
{16}6,5,7,4,8h[8:1],,3,4,2,5,1h[8:1],,8,,2/4,,6,6,
{8}5>2[8:1],7,5/8-4[8:1],7,1/8,2,3-8[8:1],4-7[8:1],3,4,1>4[8:1],2/8,
{24}1/5,6,7,
{16}8,,8,4,7,3,6,2,5,1,4,8,5,1,6,2,7,3,4/8,,7,3,5,1,8,4,
{8}6-1[8:1]/2-5[8:1],4/8,2/6,,
{1}Ch[8:1],,,,,
E
&inote_7=
