&title=感謝のコントレイル
&artist=シャイニーカラーズ
&first=0
&des=QZWZQZSWH
&des_5=QZWZQZSWH
&lv_5=283
&lv_6=0
&inote_2=
&inote_5=(173){1},
{4},,,
{16}1-7-4[8:3],2,3,4,
{8}1,,,3,2-6[8:2],,6-4-1[8:3],,8,,,6,7-3[16:2],,1<4[8:2],,4>7[8:2],,7<2[8:2],,2-6[8:1],,5,,
{16}4,6,4,6,3,5,3,5,
{8}2-5[8:1],1,8-4[8:1],,8,,
{16}1,2,3,,7-4[8:1],,5-1[8:1],,7,,5,,,,2>5[32:5]/6p1[32:5],,,,26,,,,
{8}78,56,34,1<6[8:1]/2-6[8:1],,2>5[8:1]/1-5[8:1],,12,,7,7p3[8:1]/3p7[8:1],,3p6[8:1]/7>2[8:1],,,,45,36,,
{8}7-5[8:1],4,7,4,{16}1,2p6[8:1],1,,2,,,,{8}8-4[8:1],3>8[8:1],8<5[8:1],3,,B4,C,,
{8}7/4-7[8:1],,2-5[8:1]/4,1-6[8:1],2,1,3,3,
{8}8v3[8:1],7/3-1-6[8:2],8,5,4<7[8:1],1>4[8:1],4,1,
{8}8,7,61,25,{16}3<6[8:1],4,2,,1,,,,
{8}7,8,1-6[8:1]/6-1[8:1],1-7-4[32:6]/6-8-4[32:6],,,,,
{8}56,,56,,2-4[8:1]/8-4[8:1],,28,,56,,56,,2-6[8:1]/8-6[8:1],,2/8-4[8:1]b,,8b,,,,,,,,
{8}24,56,78,15,34,57,1,28,
{8}7<4[8:1],7,7,7,8>3[8:1],8,8,8,
{8}7-1[8:1],3-5[8:1],7-3[8:1],3,7,,18,,2q6[8:2],,2,1,8,,8,1,2,2,,1,1,,
{16}1,,,
{48}2,,,{12}2,4,{12}3,{48}6,,,5,,,,{48}7,,,,,1,,,1,,,,1,,,,,{8}6-1[8:1],,
{8}6/3-7[8:1],5,3/8-3[8:1],1,2-5[8:1]/8,4,2,,
{8}3-8[8:1]/4,2,34,,3/4-7[8:1],5,34,,3-8[8:1]/4,2,34,,3/4-7[8:1],5,34,,
{8}1b,{24},7,6,5,4,3,2,1,8,7,6,5,4,3,2,1,8,7,6,5,4,
{8}8<5[8:1]/3,1,2,3,4>1[8:1],5,6,7,
{16}8-4[8:1],5,6,5,8,,2-6[8:1],,3h[8:1]b,,2b,,1b,,,,
{16}5,5,4,4,3h[8:1],,1,,3b,,4b,,5b,,,,
{16}1-5[8:1],,,2,1,,4h[8:2],,
{24}3,2,1,8,7,6,2,1,8,7,6,5,
{16}48,,2-8[32:3],4,3,,2,,7b-4[8:1],6b,5b,4b,7b/3b,,,,
{16}2-5[8:1],1,8>3[8:1],7,2,,8,,4h[32:6],,,,
{96}7-3[8:1]/A5f,D6f,A6f,D7f,A7f,D8f,A8f,D1f,A1f,D2f,A2f,D3f,A3f,D4f,A4f,D5f,A5f,D6,,,,,7,,
{8},1,2,35,2-5[32:3]/6-1[32:3],,26,,
{4}1<6[32:3]/5>2[32:3],,1<6[32:3]/5>2[32:3],,2<7[32:3]/6>3[32:3],,3<8[32:3]/7>4[32:3],,
{8}3h[2:2]/7h[2:2],,,,,,,,,,,26,,,15,,
{8}8/7-3[8:1],2-5[8:1],7,2,1-6-4[8:2],1,4-8[8:1],3,1>7[8:2],,1,8,,27,45,18,
{8}3h[8:2],4,6h[8:2],5,{16}8,1,2,,2h[8:1],,
{16}1,2,1,3,8,5,7-2[16:1],1,4,2,7,,5,,2b/8b,,,,
{8}1<6[32:3],,1/5-1[32:3],4,2>5[32:3]*<7[32:3]/5,,2,,,78,25,46,7-4[8:1]/8-3[8:1],16,78,,1-6[32:3]/2-5[32:3],38,12,,7-4[8:1]/8-3[8:1],25,78,,1-6[32:3]/2-5[32:3],38,12,,7-4[8:1]/8-3[8:1],34,78,,
{1}A1/D2/A2,
{8}5h[8:1]/3,6,1h[8:1]/7,2,8h[8:1]/2,7,4h[8:1]/6,3,
{16}2>5[32:3]/6,,8,8,2,,7,8,7,,1h[8:3],,2,,,,
{32}D3,A3,D4,A4,D5,A5,D6,A6,D7,,,,,,,,
{16}1b,,1b,,,,,,
{16}2x,1x,5x,6x,4x,,8,2x,4,2x,6,,8>3[8:1]/1<6[8:1],,,,
{16}18,,,,1s5[8:2]/5,,,,1,,6,,7>5[8:2],,3,,
{16}7,,,,,,
{8}1-5[32:3],7-2[32:3]/8,61,7,4>6[8:2],1,8,6,
{16}5,,
{24}2b,3,4,7b,8,1,
{16}5b,,,,
{24}7b,6,5,2b,1,8,
{16}4b,,,,
{24}2b,3,4,7b,6,5,
{16}8b,,,,
{24}7b,6,5,2b,3,4,
{16}1b,,,,,1-4[8:1]*-6[8:1],,1,,1,,,,,1,,
{8}6,4,3,5,7,,
{24}7,8,1,2,3,4,52,,,2,1,8,7,6,5,{8}47,36,25,
{16}3,5,4,2,4<7[32:3],,2-6[32:3],,4,,2,,1,,5p8[8:2],,,,8,,7,,6,,7-2[8:1],,,,3-6[8:1],,,,
{16}8,,,7,8,,16,,25,,36,,4-8[8:1]/7<4[8:1],,,,
{4}47,1-5[8:1]/2-7[8:1],1-4[8:1]/2-6[8:1],12,
{16}7,,,3,5,,1,,{12}8b,4b,6b,2b,,,
{8}4-8[32:3]/5,3,7<4[32:3],6,1-5[32:3],2,1,,
{24}2,3,4,52,3,4,25,,,,,,2,3,4,52,3,4,25,,,,,,2,3,4,52,3,4,25,,,,,,2,3,4,52,3,4,25,,,,,,
{8}1,,{32}2x,3x,4,5,6,7,8,1/7x,6x,5,4,3,2,1x/3x,4x/8x,5x/7x,6,7,{48}8x,1x,2x,3x,4x,5x,6x,7x,8x,
{16}5b/1x,,3b>6[8:2]/7bp2[8:2],,,,3/7<2[8:2],,,,,,8,,,,
{8}7v2[8:1],2<7[8:1],7<4[8:1],4,3,2,{12}1-7[32:3],4,3,
{16}1,,2,,{12}5-1[32:3],4,7,{16}5,,,,26,,,,
{8}8h[8:1],7h[8:1],3h[8:1],2h[8:1],8h[8:1],7h[8:1],5<8[8:1],,2-6[8:1],,2,1,8w4[8:1],,8,,
{32}16,8,7h[4:2],,,,,,1,,,,,,,,{16}2,3,{8}4,1>1[8:6]/5<5[8:6],,
{8}15,A2/A6,D4/D8,A1/A5,D3/D7,D4/A8,D6/D2,,
{8}4x>5[8:2],3,2,,1x>8[8:2],2,3,,4x>5[8:2],3,2,,1x>8[8:2],2,3,,4x,,B1/B2/B7/B8/C,,,,,,
{8}18,45,76,23,,81,54,23,
{8}7V53[4:1]/6,,3p5[4:1],,5V31[4:1],,1p3[4:1],,3<8[4:1],,8>4[4:1],,4v5[16:1]*-8[8:1],,,,1-4[8:1],1-6[8:1],1,1,5qq3[8:1]*pp6[8:1],,5,,8-5[8:1],8-3[8:1],8,8,4pp6[8:1]*qq3[8:1],,4,,
{16}24,,3,,4,2,,5,,6,5,,7/3,,26,37,48,,1<6[8:1],,8,,1/5-3[8:1],,3-8[8:1],,2,,1h[4:1],,,,
{8}7<4[8:1],2,
{24}2,1,8,,,,
{8}6>3[8:1],2,
{24}2,1,8,,,,
{8}2>5[8:1],7,
{24}7,8,1,,,,
{8}3<6[8:1],7,
{24}7,8,1,2,3,4,
{32}5b/8b,,,,,,,,,,,,,,,,,,,,,
,,,,,,,,,,,{8}2-4-8[4:1],,24,6-8-4[4:1],,56,3,,24,3,64,5,14,2,37,1<6[8:1]/5>2[8:1],,,,1,
{8}56,45,57,35,86,31,27,27,58,25,41,47,
{8}37,27,45,
{32}18,27,36,45,,,,,,3,4,3,5,3-8[8:1],,,
{8},7-4[32:3],,1-5[32:3],,6-2[32:3],7,6,,
{24}8b,7,6,1b,8,7,2b,1,8,3b,2,1,4b-8[8:1],,,,,,{8}2,5,
{4}7-4[32:3],7/1-5[32:3],1/3-7[32:3],3/4-8[32:3],4/2-5[32:3],2/1-6[32:3],1>3[32:3]/4-8[32:3],14,
{1}5h[4:4]b,
{8}1,7,4,{32}4,3,2,1,8,7,6,5,,,,,
{16}3,4,3,4,
{8}25,6,78,1,
{16}2,5,3,4,3,2,3,1,3,,4,,28,,
{8}7h[4:1],,{16}5,4,3>7[8:2]/7<3[8:2],,1,,
{8}7>3[8:5]/3<7[8:5],,,,,,,,5-1[8:2],,8,,,,
{24}6,,,,,,
{8}2-6[8:1],,1<4[8:1]/2,,3-1-5[4:1]/1,,3,7,,8w4[8:1],17,8,,17,17,26,
{24}2,3,4,57,6,5,
{8}14,1,
{24}1,2,3,41,8,7,6,5,
{16}2-6-1-5-3[8:3]/4,,,,
{8}2,7,5,8,,{24},{8}16,16,8<5[8:1]/5>2[8:1],,8-4[8:1]/5-1[8:1],,,,23,2-7[8:1]/3-6[8:1],,,,14,,
{24}3,4,2,6-1[8:1],5,7,3,4,2,
{8}6,,2-5[32:3]/7-3[32:3],,2<7[32:3],,26,,{24}4-6-1[32:7],3,2,1,,,
{8}4,2-4-8[8:2],,2,
{24}8,,,,,,
{8}7-3[8:1],,8>5[8:1]/7,,6-8-4[4:1]/8,,6,2,,1w5[8:1],82,1,,82,82,73,
{24}2,3,4,7,6,5,
{8}14,1,
{24}1,2,3,41,8,7,6,5,,
{16}2>2[8:2]/4,,,,
{8}2-6-1[32:5],,,,,
{8}12,8b-6[8:1]/4,,8b-3[8:1]/4,2,8b-5[8:1]/4,6,8b>5[8:2]/4,2,8b,,1-7-4[8:3],,3-8[8:1],,3,A4/D5/D4/A8/D1/D8,,
{48}1,8,7,6,5,,8,1,2,3,4,,1b,2,3,4,,,,,,,,,8,1,2,3,4,,1,8,7,6,5,,8b,7,6,5,,,,,,,,,
{48}1,8,7,6,5,,8,1,2,3,4,,1b,2,3,4,,,,,,,,,8,1,2,3,4,,1,8,7,6,5,,8b,7,6,5,,,,,,,,,
{48}1,8,7,6,5,,8,1,2,3,4,,1b,2,3,4,,,,,,,,,8,1,2,3,4,,1,8,7,6,5,,8b,7,6,5,,,,,,,,,
{48}1,8,7,6,5,,8,1,2,3,4,,1b,2,3,4,,,,,,,,,8,1,2,3,4,,1,8,7,6,5,,8b,7,6,5,,,,,,,,,
{32}1h,1h,1h,1h,1h,1h,1h,1h,1h,1h,1h,1h,1h,1h,1h,1h,1h,1h,1h,1h,1h,1h,1h,1h,1h,1h,1h,1h,1h,1h,1h,1h,1h,
(185)
{4}1bw5b[2:1],,,,
{16}3,,1,5,2,6,3,7,4,8,5,1,4,8,3,7,
{8}2>4[4:1],A5,B6,E8,,8-4[8:1],4,8,
,2-6[8:1],6,2,{16}8,1,8,,{8}7,6,
5<8[4:1],A1,B2,E4,,15,48,37,
2pp5[8:3]/6pp1[8:3],,,,,,4b/8b,2b/6b,
2/8-4[8:1],1,8/2-6[8:1],3,4-8[8:1]/2,5,4/6,7,
{16}1,6,2,7,3,8,4,1,3,8,2,7,1,6,8,5,
{8}D8f,2b/5b,,D2f,4b/7b,,D1f,3b/6b,,D5f,D8/D1f/D2/E1/E2/E8/B1/B8/1bx/8bx,,Ch[128:1]f,{48}1b/8b,2b/7b,3b/6b,{16}4b/5b,,,,,
{8}35,,1,1,35,1,1,,1-5[8:1],7-3[8:1],1,7,8b-4[8:1],,8b,,
1-4[8:1],8-3[8:1],1-6[8:1],8-5[8:1],1>4[8:1],8<5[8:1],1,8,
4bx,3b/2b,2b/1b,1b/8b,{32}8b/7b,1/6,2/5,3/4,{16},,,,,,
{8}1-4[8:1],4-1[8:1],1,,5,6,7,18,,12,23,34,4/5,36,2b/7b,,
2-5[8:1]/7,2,2b/7b,,2/7-4[8:1],7,2b/7b,,3-8[8:1]/6,3,3b/6b,,3/6-1[8:1],6,3b/6b,,
4h[4:3]/5h[4:3],,,,,,,,
{16}4,5,3,6,2,7,1,8,{24}1-5[8:1],8,1,8,1,8,{4}1b/Cf,
{16}2-6[8:1],,2,2,8-4[8:1],,8,8,3,,2,,1,,,,
{8}A8,A7,A6,A5,{64}A5f,D6,A6,D7,A7,D8,A8,D1,A1,D2,A2,D3,A3,D4,A4,D5,{8}A5f,1,
{8}1-5[8:1],1,2-6[8:1],2,3-7[8:1],3,4,4,
1x-4[8:1],5x-8[8:1],1x-6[8:1],5x-2[8:1],1x-5[8:1],5x-1[8:1],1x,8x,
8-4[8:1],4-6[8:1],6-2[8:1],2-8[8:1],8x<4[4:1],,4x-8[8:1],,
,1,2,3,8b/4b,3b/7b,2b/6b,,
5,5,5,,1b/2b,1b/2b,1b/2b,,4,4,4,,8b/7b,8b/7b,8b/7b,,
Chf[4:3],,,,,,,,
{32}B1,B2,B3,B4,B5,B6,B7,B8,E1,E2,E3,E4,E5,E6,E7,E8,
{64}D1,A1,D2,A2,D3,A3,D4,A4,D5,A5,D6,A6,D7,A7,D8,A8,
{4}Cf/B1/B2/B3/B4/B5/B6/B7/B8/E1/E2/E3/E4/E5/E6/E7/E8/A1/A2/A3/A4/A5/A6/A7/A8/D1/D2/D3/D4/D5/D6/D7/D8,
(92.5)
{16}1-5[16:1],4,2,4,1/7-3[16:1],6,4,6,7-4[16:1],8-3[16:1],1-6[16:1],2-5[16:1],7,8,1,2,
{24}8-6[24:1],8-5[24:1],8-4[24:1],{16}1-3[16:1]*-4[16:1],1,{24}1,1,1,{16},,
7-3[16:1],3<6[16:1],6-2[16:1],2<7[16:1],Cf,,Cf,,
{32}3,4,2,5,3,4,2,5,8,7,1,6,8,7,1,6,{16}2-4[16:1],2-8[16:1],2-6[16:1],2,2bx,2bx,2bx,,
1-5[16:1],7-3[16:1],2-6[16:1],8-4[16:1],1b,7b,2b,8b,1-4[16:1],5-8[16:1],3-6[16:1],7-2[16:1],1b,5b,3b,7b,
{8}4h[2:1],,Chf[4:1],,{16},,15,3b/7b,,84,6b/2b,,
(185)
{8}1,1,3,3,5,5,6,,8,8,6,6,4,4,3,,
25,3,47,6,25,4,47,5,
{4}4-2[8:1]/5-7[8:1],45,{12}8b,8b,8b,{8},,
1x/8x,,1x/8x,,2,6,3,7,48,,37,26,1b/5b,,,,
{8}3-1[8:1]/4,3,3b/4b,,6-8[8:1]/5,6,6b/5b,,3-1[8:1]/4,3,3b/4b,,6-8[8:1]/5,6,6b/5b,,
{4}Chf[2:3],A1,E2,B2,B3/E3,E4/A3,{32}4x,3x,2x,1x,8x,7x,6x,5x,{4}4bx,
{8}1,3,2,4,3,5,4,6,5,8,4,7,3,6,2,5,1,5,2,6,3,7,4,8,5,1,4,8,3,7,2,6,
1,2,3,4,8,7,6,5,45,36,27,18,27,,27,,
1-4[4:1],1,1b,,8-5[4:1],8,8b,,4>1[4:1],4,4b,,5<8[4:1],5,5b,,
{96}1x,,,,,,,,,1x,,,,,,,,,1x,,,,,,,,,1x,,,,,,,,,{16}1x,{96},,,,,,,,,8x,,,,,,,,,,,,,,,,,,8x,,,,,,,,,,,,,,8x,,,,,,,,,,,,,
{8}8b/4b,,,2b/6b,,,3b/7b,,
{8}4pp8<4[8:5],3,2,1,,,,,8pp4>8[8:5],7,6,5,,,,,
7,6,8,5,1,4,2,3,23,34,45,56,7-2[8:1]/6-3[8:1],,,,
{16}1x,8,7,6,{8}45,43,32,12,18,78,{1}7>3-7<3[8:5]b/6>2-6<2[8:5]b,
{4}4-2[8:1]/5-7[8:1],45,1b/8b,1b/8b,18,27,{48}1b/8b/A1/A8,E2/E8,B2/B7,B6/B3,E4/E6,A5/A4,{8},{48}2b/7b,A7/A2,E7/E3,B6/B3,E6/E4,A5/A4,{8},
{1}1>1>2>3<4<5<6<7>8>1p4-1q6-1-5[8:13]b,,
{8}34,3,3,3,34,4,4,4,3qq7[8:5],4q6[8:4],3,4,,,,,
{16}1,2,3,4,8,7,6,5,{24}2,3,4,7,6,5,8,7,6,1,2,3,{8}48,15,26,37,{16}15,48,37,26,{4}1b/5b,
{8}2-5[8:1],7-4[8:1],2,7,1-5[8:1],5,1,,
,45,36,27,{48}18,27,36,4bxh[48:9]/5bxh[48:9],,,,,,,,,,36,27,1bxh/8bxh,,,,,,,,,
{48}7x/8x,1x/6x,2x/5x,3hx[48:9]/4hx[48:9],,,,,,,,,,,5x/2x,6x/1x,7xh[64:1]/8xh[64:1],,,,,,,,
{8}1b,1b,1b,1b,
{48}2x/1x,8x/3x,7x/4x,6hx[48:9]/5hx[48:9],,,,,,,,,,,4x/7x,3x/8x,2xh[64:1]/1xh[64:1],,,,,,,,
{8}8b,8b,8b-4[8:1],8b,
{1}Cfh[1:1],
{16},,,,1,8,2,7,3,6,4,5,45,,,,
{8}3-1[8:1]/4,2,3/4-6[8:1],5,3x-1[8:1]/4,1x-7[8:1],7x-5[8:1],5x-3[8:1],
8x-4[8:1],,8,,E2f,E3f,E4f,,
{12}8,7,8,5,4,5,2,1,2,1-5[8:1],,,
{8}8-4[8:1]/1,7,1-5[8:1]/8,2,8-4[8:1]/1,7,18,,
{16}1,8,2,7,1,8,2,7,{48}36,A3/A6,D3/D7,A2/A7,D2/D8,A1/A8,{8},{48}4/5,E4/E6,B3/B6,B2/B7,E2/E8,A1/A8,{8},
5x-7[8:1],5x-3[8:1],5x-8[8:1],5x-2[8:1],5bx-1[8:1],5bx,5bx,,
8-4[8:1]/7-4[8:1],1,8b/7b,,1-5[8:1]/2-5[8:1],8,1b/2b,,1-4[8:1]/7-4[8:1],8,1b/7b,,8-5[8:1]/2-5[8:1],1,8b/2b,,
{4}Chf[4:1],,,,
{16}54,,E8/A8/B8,,5,4,B6/B7/E7,,45,,B2/B3/E3,5,4,5,A1/E2/B1,,
{8}6,{16}6,5,{8}6,6,6h[8:1],5h[8:1],4h[8:1],3,{8}3,{16}3,4,{8}3,3,3h[8:1],4h[8:1],5h[8:1],6,
8h[8:1],7h[8:1],5h[8:1],6h[8:1],1h[8:1],8h[8:1],4h[8:1],5h[8:1],
2h[8:1],1h[8:1],3h[8:1],4h[8:1],{16}2,3,1,4,8,5,7,6,
{8}67,87,81,12,{16}3,4,3,4,3,5,4,5,
{8}45,45,36,36,,2b/7b,2b/7b,,
{8}45,,45,,E6,C,{32}2b/1b,B1/B2,,,{8},54,,54,,E4,C,{32}7b/8b,B8/B7,,,{8},
{8}Chf[1:1]/E1,E2,E3,E4,E5,E6,E7,E8,{16}E1,E5,E2,E6,E3,E7,E4,E8,{32}E5,E6,E7,E8,E1,E2,E3,E4,
{64}E5/D5,B5/A5,E6/D6,B6/A6,E7/D7,B7/A7,E8/D8,B8/A8,E1/D1,B1/A1,E2/D2,B2/A2,E3/D3,B3/A3,E4/D4,B4/A4,
{8}E5f/D5,
{8},75,6,24,3,75,6,25,5,35,5,47,4,64,4,{16}8x,6,5,6,1x,5,4,5,1x,4,3,4,{8}1b/5b,3b/7b,
{8},7h[8:1],6h[8:1],5h[8:1],4h[8:1],3h[8:1],2h[8:1],
{32}1b,2,3,4,5,6,7,8,{8}1b/5b,3b/7b,,1-4[8:1],8-5[8:1],1,8,
,73,,1v3[8:1]/5v7[8:1],,15,,6h[8:3],
,,5-1[8:1],4-8[8:1],5-7[8:1],4-2[8:1],5,
4-6[8:1]*-8[8:1],,4-7[8:1]*-1[8:1],,4-2[8:1]*-8[8:1],,4,,4bh[8:3],
,,8-4[8:1],4-8[8:1],8>4[8:3],,,4<4[8:3],,,C,,{32}5,6,7,8,1,2,3,4,{8}5b,3b/7b,
{16},,1,1,2b/8b,,5,5,6b/4b,,35,,24,,{32}13,24,35,46,57,6,7,8,1,2,3,4,{48}5,6,7,8,1,2,3,4,5,6,7,8,
{8}1b/5b,3b/7b,,{48}1b/8b,2b/7b,3b/6b,4b/5b,,,{8}
,2,1-5[8:1],1,8-4[8:1],8,7,7-3[8:1],,7b,,2-6[8:1],,2b,,
1h[4:1],,2,12,23,34,45,36,7-5[8:1]/2-4[8:1],,72,,6-8[8:1]/3-1[8:1],,63,,4h[8:3],
,1,8,7-3<7b[8:3],,8,1,2-6>2b[8:3],,1,8,7,,
5z1[8:1]*s1[8:1]*p1[8:1]*q1[8:1]*p8[8:1]*q2[8:1]*w1b[8:1]*-1[8:1]b*-2[8:1]*-8[8:1],,{48}5b/A5f,E5/E6,B4/B5f/B6,B7/Cf/B3,B1f/B2/B8/E8/E3,A8/A1f/A2/E1/E2/D1/D2,
{8},,,,,E1,E5,Chf[8:3],,,,,45,36,,
{16}1,1,{24}1,2,3,{8}4b/8b,,{24}1,8,7,{8}6b/2b,,{24}5,4,3,{8}2b/6b,,{24}5,6,7,{8}8b/4b,,{24}26,15,84,{8}3b/7b,1-5b[8:1],1bh[8:3],
,,7-3b[8:1],7bh[8:3],,,2-6b[8:1],2bh[8:3],,,8-4b[8:1],8bh[8:3],,,2bx,{32}2bx,3,4,5,6,7,8,1,2,3,4,5,{8}6bx/8bx,{32}6bx/8bx,7,6,5,4,3,2,1,8,7,6,5,
{8}1bx/4bx,{32}1bx/4bx,2,3,4,5,6,7,8,1,2,3,4,{8}5bx/7bx,{32}5bx/7bx,6,5,4,3,2,1,8,
{8}7bx/3bx,2b/6b,1b-5b[8:1]/5b-1b[8:1],,,,3b-7b[8:1]/7b-3b[8:1],,,,
{4}4b/5b,3b/6b,2b/7b,1b/8b,{48}1b/8b,2b/7b,3b/6b,{16}4b-1b[2:3]/5b-8b[2:3],
{1},
(165)
{4},,,,7h[8:1]/8h[8:1],1h[8:1]/2h[8:1],7h[8:1]/6h[8:1],2h[8:1]/3h[8:1],2/3<6[8:1]*<6[8:1],8>3[8:1]*>3[8:1]/3,7<4[8:1]*<4[8:1]/8,7/8,
{8}1-5[8:1],7-2<5[8:2],1,7,,,C,,4/8>2[8:1]*>2[8:1],4,4/8-5[8:1]*-5[8:1],4,4/8-3[8:1]*-3[8:1],4,4/8,4,
{16}5,4,6,3,6,3,7,2,7,2,8,,1b/8b,,1b/8b,,
{8}7<4[8:1]*<4[8:1],8,8,8,6<1[8:1]*<1[8:1],5,5,5,2<7[8:1]*<7[8:1],3,3,3,4>1[8:1]*>1[8:1],5,5,5,7-3[8:1],7,8-4[8:1],8,1-5[8:1],1,2pp6[8:4],2,,6,7pp3[8:2],,7,C,,,5h[8:1]/6h[8:1],,5h[8:1]/4h[8:1],,4h[8:1]/3h[8:1],,4h[8:1]/5h[8:1],,4pp4qq4b[8:4]/8,4/8,4/8-6-1[8:2],,,,,,,2>4[8:1]/7<5[8:1],,7-4-1[8:2]/2-5-8[8:2],,,,,
{16}2,7,3,6,4bw8[8:1]*w8[8:1],,,,,,,,,,,,6-2[8:1],5,7,5,6,,,,3-7[8:1],4,2,4,3,,,4,8,5,1,6,2,7,3,8,4,7,3,6,2,5,1,,
{8}6x<6[8:2],2,6,,2bx<2b[8:2],6,2,,7x>7[8:2],3,7,,3bx>3b[8:2],7,3,,Ch[8:6],,,,,,,,
{16}4pp4>8[8:4]*qq4<8[8:4]/8,,,,,,,,,,,,,,,,
{12}3x,B2/E3,B1/E1,7x,E7/B6,B5/E5,1/5,2/6,1/5,2/6,,,
{8}7h[8:2],,5h[8:1],4,2v5[8:1]/4-7[8:1],,2/4,,
{16}6,5,6,5,4,5,4,5,4,3,4,3,4h[8:7],,,,
{24}E1,B8,B7,B6,,,E2,B2,B3,B4,,,B1,C,B5,
{8},,,1-4[8:2],1,4-8[8:2],4,8-5[8:2],8,5,,,6,7,8,
{8}8v5[8:1]/1-5[8:1],8/1,8/1,,8v5[8:1]/1-5[8:1],7/6,8/1,,8v5[8:1]/1-5[8:1],3/2,8/1,,8v5[8:1]/1-5[8:1],5/6,8/1,,8v5[8:1]/1-5[8:1],4/3,8/1,,Ch[8:6],,,,,,,,7-3[8:1],7,8-4[8:1],8,1<5[8:1],2,3,4,
{16}5,4,6,3,7-2[8:1],,2-7[8:2],,3-6[8:1],,3,,3,,,,
{8}5<8[8:1],4,5/4,,4>1[8:1],5,5/4,,7<5[8:1],7,8p4[8:1],8,1q5[8:1],1,2>4[8:2],,4q1[8:2],,1q5[8:2],,5-8[8:1]*-2[8:1],,,,7-4[8:1],2,7,2,1b-5b[8:1]/8b-4b[8:1],4b/5b,1b/8b,,3qq8[8:4]/4,,7-4[8:2],7,7,,,,2-5[8:1]*-5[8:1]/7,1,2/7-4[8:1]*-4[8:1],8,2-5[8:1]*-5[8:1]/7,1,8/2,,3-8[8:1]*-8[8:1]/6,4,3/6-1[8:1]*-1[8:1],5,3-8[8:1]*-8[8:1]/6,4,5/3,,7h[8:12]/2h[8:6],,,,,,,,5,4,3,2,1w5[8:1],,1b,,6,5,3,4,6/7,6/7h[8:2],,8,1,2,3,4,4-1[8:1]*-7[8:1],,4,,
{16}8,,7,,6,7,6,,5,,6h[8:1],,5h[8:4],,7,,8,,1,,2,,3,,4v7[8:1]/5v2[8:1],,,,4/5,,,,6,5,7,4,8h[8:1],,3,,1-5[8:1],,2,,1,,8-4[8:1],,4-8[8:1],,8,,1,,1,,
{8}3v6[8:1],8,3,,
{24}1-6[8:1]/2-6[8:1],3,4,5/1,,,1/2,,,,,,8-3[8:1]/7-3[8:1],6,5,4/8,,,7/8,,,,,,1-6[8:1]/2-6[8:1],3,4,5/1,,,1/2,,,,,,8-3[8:1]/7-3[8:1],6,5,4/8,,,7/8,,,,,,
{8}1h[8:7]/6h[8:7],,,,,,,,1/6,1/6,3/8,3/8,2/5,2/5,4/7,4/7,5h[8:1],4h[8:1],3h[8:1],2h[8:2],1h[8:1],,
{32}E3/E1,B3/B8,B7/B4,E5/E7,,,,,4h[8:2]/8x,E1,B1,B2,E3,,,,8x,E8,B7,B6,E6,,,,A1/A8,E2/E8,E3/E7,,,,,,A4/A5,E4/E6,E3/E7,,
{8},7qq3[8:5],6,7,,2-6[8:1],,2,,
{16}8,1,6,3,7,2,,5s1[32:6],1s5[8:1],,,,,,,,1x-7-5[8:1],,1,,2v4[8:1],,2,,7-3[8:1],,,,7,,,,
{8}6,3,7,2,1-3[8:1]/8-6[8:1],1/8,1/8,,5-8[8:1]/4,4/5,4/5,,8/1-4[8:1],8/1,8/1,,5-8[8:1]/4,4/5,4/5,,8/1-4[8:1],8/1,8/1,,3h[8:6]/7h[8:6],,,,,,,,7,4,5,2,2-4[8:1]/5-7[8:1],,,,4/8,4/8-6[8:1],4-2[8:1]/8,8-4[8:1],4-8[8:1],8,,,7x/8x,7h[8:2]/8,
{16}1,2,3,,5,1,6,2,C,,,,2-6[8:1],,1-5[8:1],,2-4[8:1],,1-7[8:1],,2-6[8:1],,1>6[8:3],,2,,,,7,8,1,2,3h[8:3],,,,,,7-3[8:1],,7,,,,4,,5,,6,,,,8,,1,2b-7-4-1-6-3-8-5[8:7]/7h[32:34],,,,,,,,,,,,,,,,,,,,,
{16}2/7,3,4,5,6/2,5,4,3,2/7,3,4,5,2/6,5,4,3,2/7,6,5,4,3/7,4,5,6,2/7,6,5,4,3/7,4,5,6,7bh[8:12]/3bh[8:6],,,,
{8},,,,,,8,8,1,1,2,2,3,7-4[8:1],3-6[8:1],7-2[8:1],3-8[8:1],7<5[8:1],3>1[8:1],7-4[8:1],3-8[8:1],7-2[8:1],3-6[8:1],7,3,8,8w4[8:1],,,,
{16}1,5,2,5,3,5,4,5b,6b,5b,7b,5b,8b,5b,1b,5b,2b,5b,1b,5-2[8:1],8b,5-8[8:1],7b,5-1[8:1],,,,,,,,,3/7,,,,3>7[8:2]/7<3[8:2],,3/7,,3/7,,,,,,,,6/5,,7/4,,3/8,,1/2,,1-6[8:1]/2-5[8:1],,,,,,,,
{16}7/3>8[8:1],6,5,4,3b,,,,7/3>8[8:1],6,5,4,3b,,,,2/6<1[8:1],3,4,5,6b,,,,2/6<1[8:1],3,4,5,6b,,,,1-4[8:1]/3-6[8:1],,
{8},,,,,,,C/B1/B2/B3/B4/B5/B6/B7/B8,A8/A1/A2/A3/A4/A5/A6/A7/E1/E2/E3/E4/E5/E6/E7/E8/B1/B2/B3/B4/B5/B6/B7/B8/Cf,,,,,,,2/5,2/5,3/6,3/6,4-2-8[8:1],6,4,,6h[8:1],2h[8:1],7h[8:4],
{32}E2,E1,E8,E7,E6,E5,E4,E3,E2,E1,E8,E7,E6,,,,,,,,
{8}6bh[8:2]/5b,4,3,2,5bh[8:2]/4b,3,2,,7<4[8:1],4<7[8:1],7,8,8>3[8:1],,8/7,,2-7[8:1],3,2/3-6[8:1],,8,8,,,8-3[8:1]/3,8/2-5[8:1],8,2,6,2/7,3/8,,
{32}1b,2,3,4,5,6,7,8,1,2,3,4,5,6,7,8,4b,3,2,1,8,7,6,5,4,3,2,1,8,7,6,5,7,8,1,2,3,4,5,6,7,8,1,2,3,4,5,6,2b,1,8,7,6,5,4,3,2,1,8,7,6,5,4,3,2b/A8/A1/A2/A3/A4/A5/A6/A7/E1/E2/E3/E4/E5/E6/E7/E8/B1/B2/B3/B4/B5/B6/B7/B8/Cf,,
{16},,,,,,,,,,,,,,,5/4,,5/4,,3/6,,3/6,,2/7,,2/7,,1/8,,7,,2,,6,,3,,5h[8:2],,
{32}4,,6,7,8,1,2,3,4/C,,,,5,,,,2,,,,6,,,,1,,,,7,,,,E1,E2,E3,E4,E5,E6,E7,E8,E1/C,,,,
{8}4,4h[8:1],5h[8:1],6h[8:1],,7h[8:1],6h[8:1],3h[8:1],2,2/8,,1-4[8:1],1-6[8:1],1-5[8:1],,,,2h[8:1]/6h[8:6],,1,8,7,8,1,,7-4[8:1],2-4[8:1],7,2,5<1[8:1],5,4b/5b,,
{8}2-7[8:1]/3,2,2/3-6[8:1],3,4-1[8:1]/3,4,4/5-8[8:1],5,5/6-3[8:1],6,6/7-2[8:1],7,7/8-5[8:1],8,8/1-4[24:46]*-4[24:46],1,1b/4,,,,,,,,5,6,7,8,
8-5[8:1],,8,,3-6[8:1]/7-2[8:1],2-7[8:1]/6-3[8:1],,,,5h[8:7],4,4,
{24}A2,E3,E4,A4,,,A1,B1,C,B5,,,A8,E8,E7,A6,,,
{16},,,,1h[8:1]/8h[8:1],,,,2/7,3/6,4/5,,
{12}1,1,1,1b,,,4h[8:1]/5h[8:1],,,3,6,3,7,2,8,1b/8b,,,
{8}3/6,,3/6,,
{24}3x/7x,2x/6x,1x/5x,4x/8x,1x/5x,2x/6x,3x/7x,,,,,,,,,
{8}1>4[8:1],2,1,8<5[8:1],7,8,,
{32}2,3,4,5,2,1,8,7,B3/B4/E4,,,,,,,,8,7,6,5,2,3,4,5,B8/B7/E8,,,,,,,,3,2,1,8,7/3,6,5,4,3/7,,,,,,,,
{8}4/6-1[8:1],2-5[8:1]/8,
4/6,
{8}2,3-7[23#80:1],,,,,,,,3h[8:1],5h[8:1],7h[8:1],1h[8:1],3w7[8:1],,3,,
{8}1>4[8:1]/8,8,1b/8b,,8>3[8:1]/7,7,8b/7b,,7>2[8:1]/6,6,7b/6b,,5bw1b[8:1],,5b,,1/3,2,6/8,7,2/4,3,5/7,6,1-4-1[8:2]*-6-1[8:2],,1,,,2/8,,7,6q2[8:1],6,5-1[8:1],5,4-8[8:1],4,3p7[8:1],3,8,,1,1-3[8:1]/8-4[8:1],,1/8,,,
{32}5,6x,4,3x,5,6x,4,3x,6,7x,3,2x,6,7x,3,2x,8xq5[8:1],,,,8,,,,8,,,,,,,,
{32}1,2x,8,7x,1,2x,8,7x,2,3x,7,6x,2,3x,7,6x,4xw8[8:1],,,,4,,,,4,,,,,,,,
{8}1>5[8:2],,5<1[8:2],,1,,5-1[8:1],,5bw1b[8:1],,5b,,
{32}1b/8b,2b/7b,3b/6b,4b/5b,,,,,1b/8b,2b/7b,3b/6b,4b/5b,
{8},7-4[8:1],8,7,2-5[8:1],1,2,8-4[8:1],1
,8,,1,1w5[8:1],,1,,6v1[8:1],5,6,3v8[8:1],4,3,7-3[8:1],2-6>3[8:2],7,2,,8,8w4[8:1],,8,,,
{24}1,2,3,7,6,5,8,7,6,2,3,4,1,2,3,7,6,5,1b/4b,,,,,,
{16}2/4,3,4,3/5,4,5,4/6,5,6,5/7,6,7,1b/8b,,,,E7/B7/B6,,,,B2/B3/E3,,,,B8/B1/E1,,,,B5/B4/E5,,Ch[8:3],,,,,,,,,,8/7,,,,
{8}7/8-4[8:1],,8/7-3[8:1],6,7/8-4[8:1],1,8/7,6,7/8,1/8,1/2-6b[8:1],3,2/1-5b[8:1],8,1/2-6b[8:1],3,2/1,
{24}8,,,2b/1b,3,4,5/8,,,7b/8b,6,5,4/1,,,2b/1b,3,4,5/8,,,7b/8b,6,5,4/1,,,2<6[8:1]*<6[8:1],,,6>2[8:1]*>2[8:1],,,2>2b[8:2],,,C,,,Cf,,,,,,,,,,,,
{8}3h[8:1]/7h[8:1],,2h[8:1]/6h[8:1],,1h[8:1]/5h[8:1],,2h[8:1]/6h[8:1],,8<2b[8:18]/3h[8:1],,,3,2,,1,,8,6z2b[8:9],,,,,,,{4},
(175)
{24},,,,,,,,,,,Cf,,,,
{12},
{16}2,4,3,4,1,5,4,5,8,6,5,6,74,,3,,25,,,{16},
{4}3>1[4:1],1<7[4:1],7<5[4:1],5>2[4:1],2<7[4:1],7<4[4:1],4>1q5[2:1],
{8}8,,5<8p4[2:1],5,,,,,8,,1>4q8[2:1]/8<5p1[2:1],18,,,,,,,4v1[8:1],,8-5[8:1],,,,3,4,25,36,
{16}7,4,8,5,
{8}1b<6[8:1],,1>4[8:1]/2,,1qq1[4:1]*v6[8:1],,1pp1[4:1]*v4[8:1],,,,6b-4-8[4:1],,36,2>5[8:1],,1V74[4:1],,3,2,2,35,2,64,7,18,27,3-8b[8:1]/6,,E5f,,6-1[8:1]*-1[8:1]/3,,E5f,,,1b/6b,3b/4b,,1b/6b,3b/4b,1b/6b,3b/4b,,1b/6b,3b/4b,1b/6b,,,
{16}2>5[8:1]/5pp5[4:1],,,,5qq5[4:1],,,,1,,1<6[8:1],,,,1>4[8:1]/5q1[8:1],,,,5<4[4:1],,,,,,5-1[8:1],,,,5p7[8:1]*q3[8:1],,,,,,,,1>4[4:1],,,,4v1[4:1],,,,1pp7[8:3],,,,7<4[8:1],,,,7p3[4:1],,,,1<4[4:1],,,,1p3[4:1],,,,,,,,7<5[8:1],,,,73,,3>1[8:1],,,,3<5[8:1]/7>1[8:1],,,,7,,,,7,,
{24}1bp4[8:1],2x,3x,,,,4b<8[8:1],3x,2x,,,,1b-7-4[4:1],2x,3x,,,,,,,,,,
{8}1V37[4:1],,7V51[4:1]*-5-2[4:1],,,,,4-8[8:1]*-7[8:1],35,,,,12,,
{16}2b,3x,4x-8[8:1],1b,2x,3x,1,,1>4[8:1]*v6[8:1],,,,,,,,8b,7x,6x,7b>2[8:1],6x,5x,7,,7p3[8:1]*<4[8:1],,,,,,,,1b/8b,,,,2b/4b,,7b/5b,,,,1b/3b,,8b/6b,,4b/5b,,,,36,,27,,18,,18,,,,2>5[8:1]/5pp5[4:1],,,,5qq5[4:1],,,,1,,1<6[8:1],,,,1>4[8:1]/5q1[8:1],,,,5<4[4:1],,,,,,5-1[8:1],,,,5qq4[8:1]*pp6[8:1],,,,,,,,2<1-4[4:1],,,,4pp4[4:1],,5,,6,,
,,1<6[8:1],,,,1pp6[8:3]/3,,,,1<1b[2:1],,,,,,,,,,,,7<5[8:1],,,,73,,3>1[8:1],,,,3<5[8:1]/7>1[8:1],,,,7,,,,7,,
{24}7bq4[8:1],6x,5x,,,,5bp8[8:1],6x,7x,,,,7pp3[8:3],,,,,,5h[4:1],,,,,,,,,,,,
{16}6,,5-2[8:1]*-8[8:1],,46,,A5f,,,,4-1[8:1]*-7[8:1],,35,,A4f,,,,
{8}3,3,5,2,4,2h[8:1],3-8[8:1],5-8[8:1]*-8[8:1],3,5,2,5pp5[4:1]*-8[8:1],,4-1[8:1]*qq4<3[8:3],,,,,,7-5[8:1],8-4[8:1],7,8,6-1[8:1],4-1b[8:1],6,4,7qq1[4:1],,2qq5[4:1],,,,6,,7h[4:1]/8,6,5,4,2h[4:1]/1,3,4,5,6h[4:1]/5,7,8,1,2b/4b,8,4,3b/7b,,16,16,27,27,38,38,27,16,38,27,27,2-8[8:1]/7-4[8:1],,,,
{16}3bx/7bx,8x,1x/5x,6x,3x/7x,8x,1x/5x,2x,3bx/1bx,2x,3x/5x,6x,7x/4x,8x,1x,2x,8bx/3bx,4x,2x/5x,3x,7x/4x,8x,1x,2x,3bx/7bx,8x,5x/1x,6x,3x/7x,8x,1x,2x,1-3-8-2[8:3]/3-5-8-6[8:3],,,,,,,,,,,,4-1[8:1]/8-5[8:1],,,,,,,,26,,,,2-5[8:1]/6-1[8:1],,,,26,,,,6bx/2bx,1x,8x/4x,3x,6x/2x,1x,8x/4x,7x,6bx/8bx,7x,6x/4x,3x,2x/5x,1x,8x,7x,1bx/6bx,5x,7x/4x,6x,2x/5x,1x,8x,7x,6bx/2bx,1x,4x/8x,3x,6x/2x,1x,8x,7x,86,,4<7[8:1],,,,2>5[8:1]*>5[8:1]/4,,,,2,,1,,8>6b[4:1],,,,5,6,7,8,1,2,3,,5b,,5b,,5b,,,,E2,,E1,,E8,,,,E4,,E5,,E6,,,,E8,,E1,,E2,,,,E6,,E5,,E4,,,,E2,,E1,,E8,,,,E4,,E5,,E6,,
{8}C,7,C,5,C,8,C,6,1,8,27,3,5,4,36,7,78,78,16,16,25,25,34,34,5,4,74,7,8,1,26,3,
{16}7,8,1,2,3,4,5,6,47,,4/5-8b[8:1],,4/3-8[0.15##0.17],,4-8[0.05##0.13]*-8[0.05##0.13]/5,,
