&title=Emma
&artist=BlackY feat. Risa Yuzuki
&first=0.18
&des=DZ
&lv_5=14+
&inote_5=(166.5)
{1},
{48}1b/8b,2/7,3/6h[48:34],4,5,,,,,,,,{4},2,,
{4}3<2[4:2],{8},7h[8:3],,,{16},6,5,4,
{12}2,8,8,1,7,7,2,4,2,6,4,6,
{4}1V75[4:1],5V31[4:1],{8}1,8,7,6,
{16}2-6[16:1],2,,7-4[16:1],7,,3-8[16:1],3,,6-1[16:1],6,,5,,5pp8[110#3:1]*qq2[110#3:1],,
{16},,,,5b,,,,,,,,,,E2,E3,
{16}E4,,,,,,7,6,54,,,36,,,27,,
{16}3h[8:1]/4h[8:1],,,6h[8:1]/8h[8:1],,,7h[8:1]/5h[8:1],,,4h[8:1]/2h[8:1],,,1-5[8:9]/8,,27,,
{24}1,8,1,8,1,8,1,8,1,8,1,8,1,8,1,8,1,8,2,7,1,8,2,7,
{32}1b-3-5-7-1[4:6],B1,Cf,B5,{8},{4},,,,,,,
{16}2,4,3,4,3,5,4,5,4,7,5,6,2,4,{32}3,8,1,8,
{16}2,5,4,7,4,5,3,6,{48}1,2,3,{16}7,7,{48}2,3,4,{16}8-4[8:1],8,{48}3,4,5,{16},
{32}8b-6-4-2-8[4:6],B8,Cf,B4,{8},{4},,,
{4},,,,
{8}2h[8:3],,1,8,57,64,35,24,
{16}1,8,1,8,2,7,1,8,{32}2,3,4,5,8,7,6,5,2,3,4,5,6,7,8,1,
{16}2v5[8:1],,5V31[8:1],,2,,6<1[8:1],6,,,{24}2,3,4,{16}5,,6,8,
{16}7v4[8:1],,4V68[8:1],,7,,3v8[8:1],3,,,{24}7,6,5,{16}4,,2,4,
{16}3V15[5:1],4,,,35,6,7<4[8:1],,8,3,7,,2,,8,1,
{16}7V51[5:1],6,8,,71,2,3,,4,7,5,6,1v6[8:1],8,2,4,
{16}1b,,,7,8,,6,5,,2,1,,3,4,,1,
{16}28,,6,57,,3,24,,1,8,2,7,3,6,2,5,
{16}1b,6,5,6,2b,5,4,5,1b,4
,3,4,{24}8b,7,6,5,4,3,
{16}7b,5,6,5,7b,4,5,4,8b,3,4,3,{32}8b,1,2,3,4,5,6,7,
{16}1bq5[8:1]/8b,,,7,1,,8V26[4:1],,,,28,,4-1[8:1],,,,
{16}4/8,,7V51[4:1],,,,17,,8w4[8:1],,,,8b,,,,
{16}26,,4/8<5[8:1],,,,{24}8/4,3,2,{16}1b-5[16:1],,,7b-4[16:1],,,3b,,
{16}8b-3[16:1],,,6b-1[16:1],,,{24}5b,4,3,{16}2b-5[16:1],,,,1,,8,,
{12},84,3qq1[12:1]/7qq5[12:1],{16}26,,B3/B7,,,2h[16:3],,,7h[16:3],,,4h[16:3],
{16},,6,,1-5[8:1]/6,27,3-8[8:1]/8,,1,,3V51[4:1],,,,3/6,,
{4}7-3[8:1],7b/8-4[8:1],8b/1w5[8:1],1b,
{16}2-5[8:1],1,,1,2,,6,,7<4[8:1],8,6,8,7,,3,,
{16}3,2,3,4,2>5[8:1],,1v6[8:1],8,2<7[8:1],,1,,2b,,,,
{16}6,,35,,2,,17,,8q5[8:1],6,5>2[8:1],7,8,,6,,
{8}8h[16:1],5/7h[16:1],{16}4,6,3,5,2,4,3,8,2,7,1,6,
{8}2bqq5[4:2],4h,5h,5h,6h,6h,7h,8h,
{8}1bqq4[4:2],5h,4h,4h,3h,3h,2h,1h,
{16}8,7,1,6,2,5,3,4,2,1,3,8,4,7,5,6,
{32}1b/7,2,3,4,5,6,7,8,1b/6,2,3,4,5,6,7,8,1/6b,5,4,3,2,1,8,7,6b/1,5,4,3,2,1,8,7,
(83.25)
{8}6bpp1[4:1]`2bv5b[16:1],15,2,4,4<7[16:1]*v1[16:1],{16}1,7,{8}4pp8[16:5],,
{8}1>4b[16:1]/4,{48}1,2,,,,,1-6[16:1]/E2,E3,E4,,,,{8}7,2-5[16:1]/1,5,{48}21,8,7,6,7,8,1,2,3,4,5,6,
{8}7bq4[8:1]`8b>3b[16:1],4V68[8:1]/3,87,,1-6[16:1]*v4[16:1],37,1pp5[16:5],,
{8}8-6[16:1]/1,6,8V24[8:1],4,8p4[12:1]/6,5,18,{48}1,8,7,6,5,4,
{16}3b-7-1[8:1]/8b,,1V35[8:1]/2,7,3/5,,,5,6q8[16:3],7h[32:3]/4,,{32},4,{16}4/6,3,,2,
{16}1b-5-3[8:1]/7,,3-8[32:3]/5,{32},8,{16}1/7,6,,,{32}7h[16:1],,,1,,,6,6,3,5,4,7,1,6,2,5,
(166.5)
{4}3-8[8:1],35,6-1[8:1],46,
{4}1-5[8:1]/7,12,8-4[8:1]/2,87,
{8}7-3[8:1],7,8-4[8:1],8,1-5[8:1],1,2>5[16:3],2,
{16}2x/5,6,7,8,6x/1,7,8,1,7x/2,8,1,2,3/8x,1,2,3,
{4}4h[4:3]/5h[4:3],,,,
{4}5h[16:1]/6h[8:1],4h[16:1]/3h[8:1],4h[16:1]/5h[8:1],1pp4b[4:4]/8qq5[4:4],
{1}1b/8b,
{4},1>4[8:1]/5<8[8:1],5-2[8:1]/1-6[8:1],1b/5b,
{16}2-5[8:1],1,,1,2,,7,,1-5[8:1]/6,,5-1[8:1]/2,,1/6,,7,,
{16}8,8,3,4,2,2,7,5,{32}1,8,7,6,{8}5h[4:1]/1>4[8:1],8,1,
{16}7bV51[4:1],,,5,57,,2,,2b-4[8:1],,,1,2,,7,,
{24}7/4-8[8:1],63,52,41,,,{4}2b/C,{24}2/5-1[8:1],36,47,58,,,{4}7b<7[4:1]/C,
{4}3h[4:1],{32},6,5,4,3,2,1,8,{8}1V35[8:1]/7,3/5-1[8:1],6,7,
{16}8,,5,6,4,5,3,,18,,4,3,5,4,6,,
{16}2h[8:1],,,1h[8:1]/3h[8:1],,,48,,7h[8:1],,,8h[8:1]/6h[8:1],,,51,,
{16}2,5,3,6,4,7,1,6,{24}2,4,3,5,4,6,{32}2,3,4,5,8,7,6,5,
{16}4/8b-4[16:5],,,,,,,,8<4b[8:1]*>4b[8:1],,,8,,,,,
{16}7,8,6,6,2,1,3,3,{32}7,6,5,4,8,7,6,5,{8}4h[8:1]/8bV25[4:1],7,
{16}68,,,7-3[16:1],,,C,,4V28[4:1],,,8,,,6,,
{32}6b,5,4,3,2,1,8,7,6/2b,3,4,5,6,7,8,1,2/7b,6,5,4,3,2,1,8,7/3b,4,5,6,7,8,1,2,
{1}3b>5[4:3]/6b<4[4:3],
{4},7h[4:1],2h[4:1],5h[4:1],
{8}1-5[8:1],1,1/7-4[8:1],7,7/2-6[8:1],2,2/8,8,
{24}8,7,6,5,4,3,26,1,8,7,6,5,48,7,6,5,4,3,26,1,8,7,6,5,
{4}4h[4:1]/8,8h[4:1],6h[4:2],2h[4:1],
{32},15,48,37,26,15,48,37,26,1,8,7,6,5,4,3,2,1,8,7,6,5,4,3,{48}2,1,8,7,6,5,4,3,2,1,8,7,
{4}6bqq3<7[4:6]`2bqq7>3b[4:6],,,,
{1},
{12}2h,4,2,6h,4,6,2h,4,8,6h,4,8,
{32}2,3h[32:7],,,,,,,6,5h[32:19],,,{8},4h,3h,2h,1h,
{24}8xb,4,8,4,8,4,8,4,8,5xb,1,5,1,5,1,5,1,5,2,6,2,6,2,6,
{32}2xb,3,4,5,2,3,4,5,1xb,8,7,6,1,8,7,6,8xb,7,6,5,48,37,26,15,4[4:8],3,2,1,84,73,62,51,8bh[4:8]/4bh[4:8],
