&title=PINK
&artist=キタニタツヤ
&first=0
&des=XXX
&des_5=
&lv_5=13+
&inote_5=(104){4},{24},,,,,,,,,,,,,,,,,3,
4,{6},{24}6,5,{6},{24}3,{12}4,{24}4h[24:7],5,,5h[6:1],{4},{48}3b/6b,
2/7,{24}1/8,{6},{24}4/3h[24:5],{6},{24}5,{8}4,6/5,{4}4/7-5[12:1],
1,{24}3/4h[24:5],{6},{24}3,{8}5-1[8:1],8,{4}7<4[32:3],
3/7,{24}4/3h[24:5],{6},{24}5,{8}4-8[8:1],7,{4}5,
8<6[12:1]/2>4[12:1],2/8,{12}4<7[8:1]*>1[8:1],{24}4,5,,5,{4},{8}8b,
2,7/4,5,6/4,3,2/5,3,
{4}5/7h[4:1],6>3[8:1],6/8,1/8,
{8}2/5,3,{4}4/2h[4:1],{8}1,8,{4}7/1>6[4:1],
6V42[16:3],8,{12}7p4[4:1],{24}7,1,,1,{4}7,
{8}1b,3,2/5,4,3/5,6,7/4,6,
{4}4/2h[4:1],3q5[1.1538##0.5769],,7/3,
{8}8,6,{4}5/7h[4:1],{8}8,1,{4}2/8<3[4:1],
3V57[16:3],1,{12}2q5[4:1],{24}3,4,,5,{4}2,
6h[1:1],5h[48:1],,5h[48:1],
3h[1:1],4h[48:1],,4h[48:1],
8h[1:1],1h[48:1],,1h[48:1],
2h[48:13],1qq6[8:3],,3h[48:1],
{8}2/4,3,6/4,5,3,4,3/5,2,
6,4,7/5V74[4:1],6,{4}5/4,{12}1,1,,3,
6/4,{24},7,{8}5,{24}6,,3/5,{12},{24}2,4,,4,{8}5qq2[4:1],8,
{4}7h[8:1],7<4[48:5],1/7,2-6[8:1],
{8}2b/6b,7,8<5[32:3]*>3[8:1],7/1,{4}8,{12}3>6[4:1],{24}5,4,{12},{4}3/6q4[4:1],
5-1[8:1],{8}5,2,{12}8v3[8:1],{24}1,7,,7,
{8}8v5[8:1],7,8v3[8:1],{24}1,,6,{8}8,7pp4[4:1],2,1h[4:1],
{4},{8}5/1,2>5[32:3],{12}3/4,{24}6,2,,7,{4}7-3[8:1],
{8}3b/7b,2,1q5[8:1]*p5[8:1],2/8,{4}1,{12}6<3[4:1],{24}4,5,{12},{4}6/3q5[4:1],
5<8[8:1],{8}3,2,{12}1v6[8:1],{24}8,2,,2,
{8}1v4[8:1],2,1,{24}7,,7,{12}1,{24}8-4[12:1],3,,7,{4}5,
{48}6b/3b,7/2,{24}8/1,{6},{24}5/6h[24:5],{6},{24}4,{8}5,3/4,{4}2-4[12:1]/5-1[32:3],
2/5,{24}1/5h[24:5],{6},{24}6,{8}4-8[32:3],2,{4}4<7[32:3]/1>4[32:3],
1/4,{24}5/6h[24:5],{6},{24}4,{8}5-7[12:1]*-3[12:1],8,{4}5,
{8}1/8,{24}3,,3,{8}2/4,{24}6,5,6,4,5,4,7,5,7,{4}6-3[8:1]*v4[8:1],
6b,{24}5/2,{6},{24}3,{12}5,5,5,4/6,{8},{24}2,
{12}1,3,{24},7,{12}8,{24}6,5s1[16:3],,4/7,{12},{24}6,5qq4[16:3],,,,,,{8}5,
{12}1,1,{24},3,{8}4,{24}6,,6,{12},{24}1,8,,3,{8}4,{24}6/5,,7/4,
{12},2/5,{24},3,{8}4,{24}5,,6/4,{12},{24}3,7,,4,{4}5/4pp5[6:1],
{12}1b,2,3,4qq5[4:1],{6},{12}1,8,7,6>3[32:3],{8},{24}4,
{12}6,2,{24},1,{8}8,{24}3,,3/4q8[48:5],{12},{24}1,1>4[32:3],,,,,,{8}1,
{12}6,5,{24},7,{12}4,{24}4,5,,1,{12},{24}2,4,,4,{8}3,{24}5,,4/6,
{12},{24}7,8,,2,{8}1,{24}3,,2/4,{12},{24}6,4/6,,3,{4}4/3,
5/3h[1:1],2h[48:1],,2h[48:1],
6h[1:1],7h[48:1],,7h[48:1],
1h[1:1],2h[48:1],,2h[48:1],
8h[48:13],7pp3[8:3],,6h[48:1],
{8}7/5,6,5/3h[8:1],2,8,4,5/6h[8:1],7,
1,5,2h[8:1]/4V26[4:1],1,{4}4/6-1[8:1],{12}5,5,,6/5,
4/7,{24},2,{8}5,{24}3/4,,2/5,{12},{24}1,8,,3,{8}4/2,{24}2,4,2,
4,3,5,4,5,2,4,3,5,4,5,3,4,3,6,5,6,4,{4}8z4[32:5],
{8}8b/4b,3,2<7[8:1]/4<7[8:1],3,{4}2/4,{12}6<3[4:1],{24}1,8,{12},{4}6/3V58[4:1],
1q5[8:1],{8}1,8,{12}4<7[32:3],{24}5,3,,3,
{8}4p8[8:1],3,4<7[32:3],{24}5,,1,{8}4,2pp5[24:7],1,8h[4:1],
{4},{8}8/3,6>3[32:3],{12}5/4,{24}2,6,,1,{4}1s5[32:5],
{8}1b/5b,6,7p3[8:1]/3p7[8:1],2,{4}7/3,{12}2<5[4:1],{24}4,3,{12},{4}2/5pp4[4:1],
4>1[8:1],{8}7,8,{12}1>4[32:3],{24}3,5,,5,
{8}1<6[32:3],7,1-5[8:1],{24}5,,5,{8}1,8,1/7,4/6,
{12}4b/3b,5/2,,{8}6/5q4[16:3],4/7,{12}1,1,,{8}2V84[4:1],5,
{4}2/4qq5[4:1],6<1[8:1],{8}6,4,{12}2-4[12:1],{24}3,5,,5,
{8}2-8[12:1],7,2,{24}5,,5,{8}4v5[8:1],2/7pp2[4:1],4,7,
,3,3/4v6[8:1],2,{4}4/5w1[32:3],5bpp4[4:1],
{8}5b,1,2v5[8:1],3/5V38[16:3],{4}2,7v4[8:1],
7/8>3[32:3],{24}6/8,{6},{24}5,4>1[32:3],{6},{24}6,{12}4,{24}7,7,,1,
{8}8p3[8:1]*q5[8:1],7,{4}8,{12}1,{24}6,5/7,,3,{8}4/2,{24}3,5,3,
5,4,6,5,6,3,5,4,6,5,6,4,5,4,6,3,7,2,{4}1/8h[4:1],
{48}1b,7/2,6/3,5/4,
E
