&title=AYO WTF?!
&artist=Supa7onyz
&first=0.09
&lv_5=14+
&des_5=WTF? (lnv`/vA❤
&inote_5=
(160){4},,,,A8/D3/B2/E4/B3/A3/D4/D5/B4/A5/B6/E1/B5/B8/D7/E2/B7/E8/D1/A1/B1/D2/A2/E3/D6/A4/E5/E6/E7/A7/D8/A6/Cf,
A4`6<2v4[2:1],,,,8>7[8:3],
{32}D1f/E1f,A1f,D2f/E2f,A2f,D3f/E3f,A3f,E4f/D4f,A4f,D5f/E5f,A5f,E6f/D6f,A6f,{8}E7f/D7f,
{4}7x-2[8:1],7`3x-6b[8:1],2-7[8:1],6-3b[8:1],
,7-2[8:1]/3-6[8:1],7<3[8:1]/3>7[8:1],7/3,
5pp7[8:1]`4qq2[8:1],4,8-5[8:1]`1-4[8:1],8,
{8}5-7[8:1]/4-2[8:1],1/8,{4}4-8[8:1],5-1[8:1],{32}A5,B5,C,B1,{8}A1,
{4}5-8[8:1]`4-1[8:1],5,{8}8-6[8:1]/1-3[8:1],4/5,{4}1-5[8:1],
{2}8-4[8:1],{4}8-5[12:1]*>5[12:1],8,
{8}Ch[8:7]/6-8[8:1],6,{4}6,1-3[8:1],1,
{24}A4,E5/D5f,A5,E6/D6f,A6,E7/D7f,A7,E8/D8f,A8,E1/D1f,A1,E2/D2f,A2,E3/D3f,A3,E4/D4f,A4,E5/D5f,{4}A5,
4h[8:1]/E8/B7,5h[8:1]/E2/B2,4h[8:1]/E8/B7,5h[8:1]/E2/B2,
{8}4h[8:1]/E8/B7,E8/B7,{4}4h[8:1]/E8/B7,4-7[8:1]*>7[8:1],4,
{8}8h[8:1]/B3/E4,B3/E4,{4}8h[8:1]/B3/E4,1h[8:1]/B6/E6,8h[8:1]/B3/E4,
{8}1h[8:1]/B6/E6,B6/E6,{4}1h[8:1]/B6/E6,{32}1>2>3<4<5<6<7[32:5],2bx>7b[8:1],3x<7[32:3],4<7b[16:1],,,,,,,,,,,,,{8}1/8,
1,1/2,2,2/3,3,3/4,4,
4/5,5,5/6,6,7/6,7,7/8,8,
{16}1,1,2,2,3,3,4,4,5,5,6,6,7,7,8,8,
{4}1-5[8:1]*w5[2:1],1b,,,1-6[8:1],
8h[8:1]/1-4[8:1],2/1-6[8:1],7h[8:1]/1-4[8:1],
2h[4:1]/1b-6[8:1],1-4[8:1],{6}7,{12}7,7h[4:1],{48},,,,,,,,{16}1,
1,2,2,3,3,4,4,5,5,6,6,{4}8v3[8:1]/7<4[8:1],
8b/7b,{32},,,,,,,,,,,,,,,,8bx,1bx,8bx,1bx,8bx,1bx,8bx,1bx,
{4}8bx-5b[8:1],{8}2bx/8bx-4b[8:1],A5f,8bx-6b[8:1]/1bx-4b[8:1],A4f,8bx-5b[8:1],A6f,
8bx-4b[8:1],A5f,2bxh[4:1]/8bx<6b[8:1],A4f,8bx-5b[8:1],A6f,{16}3bx,2bx,{8}1bx/A5f,
{4}1bx>3b[8:1]/6bx-8b[8:1],1bx-4b[8:1],{2}1bx-5b[8:1]/8bx-6b[8:1],
{8}1b/3b,4b,5b/7b,6b,{24}5bh[4:1]/3bh[4:1],,,,,,,6b/2b,1b/7b,8b,,,{4}5b/1b-5[8:1],
{16}1b/8b,7b,{8}6b,{4}5b-1[8:1],5b/3bv8[8:1],
3b/1b,3b/1b-6[8:1],1b,{8}7b/5b,6b/4b,
{4}5b/3b-8[8:1],3b/1b,6b/4b-7[8:1],4b/2b,
7-2[8:1]/6-3[8:1],7/6,{8}3b/2b,4/1,{4}3b/2b,
{8}1/8bx,2,3,4,{12}5bx,6,7,8,1,2,
{16}3bx,4,5,6,7,8,1,2,{24}3bx,4,5,6,7,8,1,2,3,4,5,6,
{32}7bx,8,1,2,3,4,5,6,7bxh,8h,1h,2h,3h,4h,5h,6h,{48}7bxh,8h,1bh,2bh,3bh,4bh,5bxh,6bxh,7bxh,8bxh,1bxh,2bxh,3bxh,4bxh,5bxh,6bxh,7bxh,8bxh,{8}1bxw5b[16:1],
,,,,,,,,1b,
,,1b,8b,,,1b,
1b,1b,1b,1b,8b,1b,{4}C,
{24}1b,2bx/8bx,{12}7bxh[12:1]/3bxh[12:1],{24},,1b,8bx/2bx,{6}3bxh[12:1]/7bxh[12:1],{24}1b,2bx/8bx,{12}7bxh[12:1]/3bxh[12:1],{24},,1b,8bx/2bx,{6}3bxh[12:1]/7bxh[12:1],
{24}1b,2bx/8bx,{12}7bxh[12:1]/3bxh[12:1],{24},,1b,8bx/2bx,{6}3bxh[12:1]/7bxh[12:1],{24}4bx/6bx,,,8bx/2bx,,,{8}5bx/3bx,1bx/7bx,
{24}8b,7bx/1bx,{12}2bxh[12:1]/6bxh[12:1],{24},,8b,1bx/7bx,{6}6bxh[12:1]/2bxh[12:1],{48}7b/1b,,,1b/7b,,,{24}1b/7b,2bx/6bx,3bx/5bx,{4}4bx,
{8}2bx/B2f,7bx/B7f,3bx/B3f,6bx/B6f,{2}Cfh[4:1],
{8}1x/8x,8x/1x,{4}7bx/2bx,{24}1,2,3,4bh[8:1],,,1,2,3,4bh[8:1],,,1,
2,3,4bh[8:1],,,1,2,3,4b,,,{8}6/3,7/2,5/4,{32}8b/1b,2b/7b,3b/6b,5bh[32:1]/4bh[32:1],
,,,,,,,,8b/1b,7/2,3/6,4/5,,,,,{8}7b/8b,3b/4b,2b/1b,6b/5b,
{4}8>4[4:1],4<8[4:1],8>4[4:1],4<8[4:1],
8V24[4:1],4V68[4:1],8V24[4:1],4V68[8:3],
{8},8V24[8:3],,,4V68[8:3],,,8V24[8:3],
,,{4}4V68[2:1],,8V24[2:1],
,4V68[2:1],,8V24[8:3],
{8},4V68[8:3],,,{4}8V24[4:1],4V68[4:1],
8V24[4:1],4V68[4:1],8>4[4:1],4V28b[4:1],
8V64b[4:1],4V28b[4:1],,,,E8/B7/B6/E6/C/E4/B3/B2/E2/B4/B8,
{2}1<4[16:3],
{4}3-8[8:1],1-6[8:1],1-4[8:1]`5-2[8:1],5,
8p4[8:1]`2p6[8:1],8/2,1>6[8:1]`6-1[8:1],6,
1v3[8:1]/8v6[8:1],8V25[8:1]`1V74[8:1],8,6<8[8:1]`3>8[8:1],
{2}6>3[8:1]`3<6[8:1],{32}4>5[4:1]`5<4[4:1],3>5[32:7]`6<4[32:7],2<5[16:3]`7>4[16:3],1<5[32:5]`8>4[32:5],,,,,,,,,,,,,{8}A5/A4,
A6/A3,A7/A2,A8/A1,6/4b,1/3b,5b/7,8/4b,
5/2b,7/4b,8/3b,1/4b,6/7b,8/5b,1/4b,3/2b,
{24}3,4,5,6,7,8,1,2,7b/3b,6,5,4,3,2,1,{96}8,,,7b,,,{32}6/8,1/5,2/4,3b,,,,,,,{1}1-6[2:3]*-4[2:3]*-7[2:3]*-3[2:3]*w5[4.125##0.0938],
{4},,,,,,,C/A5,
3/6,6/3,{8}6/3,7/2,{4}1/8,
{32}8-5[8:1]*-3[8:1],,,B2,C,B6,,,,,,,,,,,8,1,8,1,8,1,8,1,8,1,8,1,8x,1x,8x,1x,
2x,3x,4x,5x,6x,7x,6x,5x,4x,3x,2x,3x,4x,5x,6x,7x,6x,5x,4x,3x,2x,3x,4x,5x,6x,7x,6x,5x,4x,3x,2x,3x,
4x,5x,6x,7x,6x,5x,4x,3x,2x,3x,4x,5x,6x,7x,6x,5x,4bx,3x,2x,3x,4bx,5x,6x,7x,6bx,5x,4x,3x,2bx,3x,4x,5x,
6x,7x,6x,5x,4x,3x,2x,3x,4x,5x,6x,7x,6x,5x,4x,3x,2x,3x,4x,5x,6x,7x,6x,5x,4x,3x,2x,3x,4x,5x,6x,7x,
{4}8h[8:1],8h[8:1],{2}1h[4:1],
{8}8,8,{4}1h[4:1],{32},8,7,6,5,4,3,2,1bx,7,6,5,4,3,2,1,
8bx,6x,5x,4x,3x,2x,1x,8x,7bx,5,4,3,2,1,8,7,6bx,4,3,2,1,8,7,6,{8}5bx/3b,{32}2b/4b,1,8,7,
6,5,4,3,2,1,8,7,6/2,3,4,5,6,7,8,1,2/6,5,4,3,2,1,8,7,6,5,4,3,2,1,8,7,
{4}6>7[8:3],{32}D6f/E6f,A5f,D5f/E5f,A4f,D4f/E4f,A3f,E3f/D3f,A2f,D2f/E2f,A1f,E1f/D1f,A8f,{8}E8f/D8f,,,5/4,
8,5/4,1,4/5,7,4/5,2,
8/1,6,1/8,3,8/1,4,1/8,5,
{16}1,3,1,3,1,3,1,3,{24}1bx,3,1,3,1,3,1,4/2b,5/3b,6/4b,7/5b,8/6b,
7b,8b,1b,2b,3b,4b,7,6,7,6,7,6,7,6,7,6,7,6,{32}7,,,,,3,2,1,
{4}8-4[8:1],8-3[8:1]*-5[8:1],,2v7[8:1]/6-1[8:1],
2v5[8:1],2V86[8:1]/7p3[8:1],2-5[8:1],2-8[8:1]/4v7[8:1],
4-6[8:1]/2-6[8:1],4-7[8:1]/2<7[8:1],{2}2q6[8:1]/4>1[8:1],
{8}8/1,8/1,1/8,8/1,{2}7h[4:1]/2h[4:1],
{8}4/2,4/2,{4}4/2bh[4:1],{32}4b,5/3,6/4,7/5,,,,,{8}7/5,5/7,
{2}7h[4:1]/5h[4:1],{32}7b/5b,6/4,{16}5/3,{32},,,,2b/4b,3/5,{16}4/6,,,{8}1/5,
5/1,{4}5/1,{32}5/1,6/2,7/3,8/4,5/1h[4:1],6,7,8,2,3,4,5,6,7,8,1,
{4}2>8[8:3],{32}E3f/D3f,A3f,D4f/E4f,A4f,E5f/D5f,A5f,E6f/D6f,A6f,E7f/D7f,A7f,D8f/E8f,A8f,{4},{16},,{48}8b/1b,
2b/7b,6b/3b,4b/5b,
E
