&title=过年
&artist=泽野螳螂
&first=0.147
&des=sreCP
&lv_5=13+
&inote_5=(131.947)
{384},
{16}3b/8b,,2,1,2,,,,6b/1b,,7,8,7,,,,
{16}3/8,,2,1,2,,1,,5,,1,,4,,8,,
{8}3,7,3,7,2,6,2,6,
{8}1,5,1,5,1,5h[16:1],1,5h[16:1],
{16}8,7,5,6,8,7,5,6,1,8,5,6,1,8,5,6,
{16}2,1,4,5,2-6[8:1],,,,2/7-3[8:1],,,,7/1bw5b[8:1],,,,
{8},,6h[8:1],5h[8:1],8h[8:1],1h[8:1],4h[8:1],2h[8:1],
{8}8h[8:1],5,1/2,5,1/2,5,1/8,5,
{8}4/6,2h[8:1]/7,6h[8:1],1h[8:1],5h[8:1],3h[8:1],4h[8:1],1h[8:1],
{8}4h[8:1],2,5/6,2,5/6,2,4/5,2,
{8}7/8,6h[8:1],5h[8:1],8h[8:1],1h[8:1],4,1/2,4,
{8}1/2,6h[8:1],1h[8:1],5h[8:1],3h[8:1],8,5/6,8,
{4}5/6,1-6[8:1]/2-5[8:1],1/2,8-3[8:1]/7-4[8:1],
{16}8/7,,,,1/2,,,3,3,,4,,5,,5,,
{8}6,6,7,7,8,7,6,5,
{8}4,3,2,,1w5[2:1],2/8,1b,,
{8},,,,,,2h[8:1]/6,4,3/7h[8:1],5,2h[8:1]/6,4,3/7h[8:1],5,
{8}1h[8:1]/7,4,2/8h[8:1],5,1h[8:1]/7,4,2/8h[8:1],5,
{16}3/6b,,4,4,5,,,,
{32}4,3x,2x,,
{8}7h[8:1],
{32}1,2x,3x,,
{8}8h[8:1],
{32}2,3x,4x,,
{8}1h[8:1],3,3h[4:1],,
{32}5,6,7,,4,3,2,,6,7,8,,2,3,4,,
7h[8:1],,,,
3,4,5,,
8h[8:1],,,,
4,5,6,,
,,,,
8,7,6,,
1,2,3,,
8,7,6,,
1,2,3,,8,7x,6x,,
6x,7x,8x,,
3x,2x,1x,,
{16},,2/7h[8:1],,1,1,2h[8:1]/7,,8,8,2/7h[8:1],,1,1,2/7,,2/7,,
{8},2-5[8:1]/7-4[8:1],1/8,2/7,,2-4[8:1]/7,1,2/7-5[8:1],
{8}8,2-4[8:1]/7,1,2/7-1-5[2:1],,7,2h[8:3],,
{16},,,,1/2,,2,2,3,3,4,4,5x/7x,,6,,
{8}2/4,3,4/7,6,2/5,3,4/7,,
{8}1-4[8:1]/7-4[8:1],4-1[8:1]*-7[8:1],1x>4>1b[4:1]/7x<4<7b[4:1],,,,,,
{8}6x-3[8:1],6,1h[8:1],,3x-6[8:1],3x,8h[8:1],,
{8}6x-3[8:1],3V16[4:1]*-8-6[4:1],6,,,,,
{8}E7f/E3,B6/B3f,B7f/B2,E7/E3f,B6f/B3,,A1/A2,E1/E3,B8/B3,
{8}B7/B4,E7/E5,A6/A5,A6/A5/D7/D5,,1,1,,
{8},,
{32}
1b,2,3,,1,2,3,,
1h[8:1],,,,,,,,
8b,7,6,,8,7,6,,
8h[8:1],,,,,,,,
1b,2,3,4,5x/8,7,6,5,
4x/1b,2,3,4,5x/8,7,6,5,
{64}4x/2x,3x,4x,5x,6x,7x,8x,1x,2x,3x,4x,5x,6x,7x,8x,1x,
2x/6x,5x,4x,3x,2x,1x,8x,7x,
6x,5x,4x,3x,2x,1x,8x,7x,
{8}6xz2[4:1]/2x,E8,B5,E2,,1v6[8:1],2,3v8[8:1],
{8}4,5-1[8:1],6,7-3[8:1],8,7,6,5-1[8:1],
{8}4,4,,
{8}6-8[8:1]/1-5[8:1],8,,,B1/B2/E2,E3,B3,,
{8}8-2[8:1]/3-7[8:1],7,,,B3/B4/E4,E5,B5,,
{8}2-4[8:1]/5-1[8:1],4,,,B5/B6/E6,E7,B7,,
{8}1/7^5[8:1],8,1^3[8:1]/7,8,1/7-3[8:1],8,1-5[8:1]/7,8,
{8}1/7,8,8,,Ch[4:1]/B1f,B2/E3f,B3,,
{8}Chf[8:1]/E1,A1/D2/E2,,
{16}1bxh[2:1]/C,,B5,B4,B5,,C/B6,,8,,
{8}8,7x,,
{16}5-1[8:1],,,5,4^6[8:1],,3,,4-8[8:1],,,1,2,,3,,
{16}2,,7-3[8:1],7,8,,1,,2v5[8:1],,,2,8,,6-8[8:1],7x,
{16}7x,,6,,1p4[6:1],,,2,2,,3,,,,
{32}1,2,3,,8,7,6,,
1,2,3,,7,6,5,,
8,7,6,,1,8,7,,
3,4,5,,8,7,6,5,
4,,1bx,2x,3x/8bx,7x,6x,5x,
2,3,4,,7,6,5,,
2,3,4,,7,6,5,,
8,7,6,5,4/8,7,6,,
{8},Cf/D8/E8/E4/D4/D2/E2/E6/D6/A7/D7/A6/A2/D3/A3,,
{384},,,
{16}7/8,,7/8,7/8,7/8,,7/8,7/8,1/2,,1/2,1/2,1/2,,1/2,,
{16}2,1,5,6,2,1,5,6,1v4[8:1],,1,2,3,,8x,,
{64}8b,7x,6x,,
,,,,
8bx,7x,6x,,,8bx,7x,6x,,
8bx,7x,6x,,
,,,,
8bx,7x,6x,,
8bx,7x,6x,,
1bx,2x,3x,,
,,,,
1bx,2x,3x,,
1bx,2x,3x,,
1b,2x,3x,,
,,,,
1bx,2x,3x,,
1bx,,,,
{16}4,5,8,7,4,5,8,7,1,2,3,4,5,,
{8}8/2-8[16:1],3,4-2[16:1],5,6-4[16:1],7,8-6[16:1],1,8x,
{16}1,1,8,8,2,2,7,7,4,4,5,5,3,3,6,6,
{16}3/7,,4-2[12:1],6,5,,4/8-2[12:1],7,6,,8,,4,,3,,
{16}2,6,3,7,4,8,1,5,2>5[16:1]/6v1[16:1],,,,2b/6b/Cf,,,
{128},,,,,
{32}1,8,7,6,5<4[8:9],,,,
{8},4,5h[4:1],,,5,
{16}6,,6,6,7,,8,,1,,B1,B2,B3,,B4,,
{16}7x/6x,,,5/8,5/8,,1/4,,1/4,,2x/3x,,,,2x/3x,,
{16}1,1,4,4,8,8,5,5x,7bx/2bx,7bx/2bx,7bx/1b,7bx/1bx,7bx/8b,7bx/8bx,7bx/6b,7bx/6bx,
{16}2/6x-3[4:1],,,,6/2q4[2:1],,,8,2,,,,7h[4:1],,,,
{16},6,5,5,4x/3x,1x/7x,4x/3x,1x/2x>5[4:1],,2/Chf[8:1],,,,,,,
{16}6>5-3>1b[8:10]/4-8^7b[8:10],,,,,,,,,,,,,,,,
{8},,,,,,B6f,,
{8}5h[8:1],B5/B6,5h[8:1],B1/B2,5h[8:1],B5/B6,5h[8:1],B1/B2,
{8}5h[8:1],B5/B6,5h[8:1],B2/B3,5h[8:1],B5/B6,5h[8:1],B2/B3,
{8}5xqq1[2:1]/5pp1[2:1],
(49){16}2xqq5b[8:1]/8xpp5b[8:1],,,,,,,
,E
